<?xml version="1.0" standalone="no"?>
<!DOCTYPE svg PUBLIC "-//W3C//DTD SVG 1.1//EN" "http://www.w3.org/Graphics/SVG/1.1/DTD/svg11.dtd" >
<svg xmlns="http://www.w3.org/2000/svg" xmlns:xlink="http://www.w3.org/1999/xlink" version="1.1">
<metadata>
Created by FontForge 20170731 at Wed Sep  5 18:41:22 2007
 By Aleksey,,,
(c) 2006 The Monotype Corporation. All Rights Reserved.
</metadata>
<defs>
<font id="Arial-BoldMT" horiz-adv-x="0" >
  <font-face 
    font-family="Arial"
    font-weight="700"
    font-stretch="normal"
    units-per-em="2048"
    panose-1="2 11 7 4 2 2 2 2 2 4"
    ascent="1638"
    descent="-410"
    x-height="1062"
    cap-height="1466"
    bbox="-1285.02 -771 4096 2069"
    underline-thickness="215"
    underline-position="-538"
    unicode-range="U+0020-FFFC"
  />
<missing-glyph horiz-adv-x="1536" 
d="M256 0v1280h1024v-1280h-1024zM288 32h960v1216h-960v-1216z" />
    <glyph glyph-name="allah" unicode="&#x627;&#xfedf;&#xfee0;&#xfbab;" horiz-adv-x="1744" arabic-form="isolated" 
d="M780 1578l-20 -36q-37 87 -68 127t-98 83l-36 132q71 -22 117 -76q62 -73 105 -230zM948 1424q0 -69 -26 -110.5t-70 -41.5q-13 0 -26.5 4t-35.5 16q-30 -51 -53.5 -71.5t-52.5 -20.5q-28 0 -51 32.5t-23 75.5q0 18 4 36q8 31 14 56l14 6q-1 -11 -1 -17q0 -31 9 -51
q14 -30 46 -30q34 0 56 40.5t22 115.5l18 6q12 -54 24 -71t36 -17q45 0 59 71q4 23 5 71l18 8q8 -31 11 -57t3 -51zM1354 570q0 -51 -15.5 -141t-30.5 -147q-9 -33 -31 -40.5t-103 -7.5q-80 0 -116 18t-68 68q-65 -71 -138 -104q-66 -30 -140 -30q-77 0 -122 45t-80 159
q-56 -63 -93 -96q-52 -46 -83 -46q-107 0 -197.5 25.5t-90.5 50.5q0 37 60 158t114 190q34 45 67 65q57 30 111 59l2 52q0 40 13.5 87.5t48.5 122.5l126 -453q19 -68 46.5 -96.5t83.5 -28.5q51 0 103 25t86 63l-97 314q-9 31 -11.5 44.5t-2.5 27.5q0 53 18 113q14 46 44 103
l142 -442q45 -137 78.5 -174.5t109.5 -37.5q47 0 56 30l-122 391q-8 27 -13 50.5t-5 38.5q0 46 14.5 97.5t43.5 112.5l152 -466q22 -66 31 -110t9 -90zM472 548l-34 108q-68 -28 -109 -60t-41 -56q0 -6 44 -17t70 -11q12 0 32.5 10.5t37.5 25.5zM1670 584q0 -89 -21 -162.5
t-81 -197.5l-60 24q24 128 24 208q0 61 -10 179t-25 233.5t-49 275.5q-12 56 -12 77q0 31 31 105.5t87 180.5l60 -354q33 -202 46 -350q10 -114 10 -219z" />
    <glyph glyph-name="riyal" unicode="&#x631;&#xfbfe;&#xfe8e;&#x644;" horiz-adv-x="2436" arabic-form="isolated" 
d="M924 318q0 -154 -160 -273t-365 -119q-171 0 -267.5 86.5t-96.5 241.5q0 145 36 253q41 122 160 299l62 -42q-78 -117 -111 -203t-33 -171q0 -91 67.5 -140.5t190.5 -49.5q176 0 286 68t110 178v30v17q0 39 -6.5 86t-33.5 194q-43 237 -86 475l-50 36q0 98 92 300l46 -22
q-4 -14 -4 -32q0 -40 41 -65q61 -34 115 -65q-11 -86 -22 -123t-46 -111l-30 12q0 -15 28.5 -170.5t48.5 -268.5q28 -162 28 -197v-224zM1480 293h-140q-117 0 -169 96q-58 106 -58 357v285q0 97 -27 151q-13 26 -60 75l108 250q58 -80 81 -158q27 -91 27 -232v-197
q0 -209 28 -290q22 -65 70 -65h140v-272zM1956 293h-626v272h526q-11 68 -40 115q-15 26 -70 90l80 238q75 -85 102.5 -178t27.5 -276v-261zM1540 117l-104 -194l-148 74l-84 -162l-182 102l110 204l142 -80l80 158zM2436 270q0 -61 -70 -161.5t-164 -174.5
q-104 -82 -178 -82q-88 0 -189 50q-88 43 -275 172l42 62q90 -60 145 -81t119 -21q69 0 138 39t188 145q166 148 166 228q0 40 -32 105q-36 74 -88 123l56 270q68 -70 105 -161t37 -207v-306z" />
    <glyph glyph-name="uni06440622.isol" unicode="&#xfedf;&#xfe82;" horiz-adv-x="1108" arabic-form="isolated" 
d="M1076 1356q0 -70 -14 -141q-6 -30 -28 -109l-72 28q0 -118 -28 -235t-90 -231q55 -99 64 -116q24 -46 24 -83v-31q0 -25 -16 -204q-114 -54 -203.5 -70t-266.5 -16v296q101 52 144.5 87.5t113.5 122.5q-114 144 -166 203q-42 48 -108 111q-16 -33 -23.5 -43.5
t-14.5 -10.5q-24 0 -90 41q-59 37 -91 66t-48.5 108.5t-16.5 202.5q0 54 6.5 75t27.5 21q39 0 158 -112q102 -96 182 -192q63 -69 114 -138q46 -61 144 -210q45 85 62 217q10 80 10 191q-36 17 -49 33.5t-13 44.5q0 60 13 122t43 130l42 -14q0 -64 30 -85q24 -17 160 -59z
M814 486l-48 74q-44 -49 -67.5 -69.5t-82.5 -62.5q76 8 108.5 17.5t89.5 40.5zM488 1656q-44 -49 -85 -69t-101 -20q-34 0 -66.5 7t-78.5 26q-29 13 -48.5 18.5t-36.5 5.5q-14 0 -58 -14l-14 14q46 77 106 77q36 0 99 -26q41 -17 77 -25t68 -8q30 0 52 5t68 24z" />
    <glyph glyph-name="uni06440622.fina" unicode="&#xfee0;&#xfe82;" horiz-adv-x="1220" arabic-form="final" 
d="M828 794q0 -30 -9 -55.5t-33 -66.5q-59 133 -130 218t-168 136q0 -43 -10 -62.5t-28 -19.5q-30 0 -110 57q-86 61 -124 117q-27 39 -40.5 113t-13.5 121q0 72 38 72q59 0 176 -69.5t220 -166.5q232 -214 232 -394zM1220 293h-73q-63 0 -119 103q-60 110 -60 252
q-88 -263 -246 -361q-153 -95 -468 -95l-116 2v64q72 25 142.5 49.5t105.5 42.5q204 103 276 150q128 83 185 174q67 107 67 262q0 93 -14.5 181t-29.5 175q0 68 116 276q52 -171 66 -447q8 -195 17 -390q16 -166 78 -166h73v-272zM488 1656q-44 -49 -85 -69t-101 -20
q-34 0 -66.5 7t-78.5 26q-29 13 -48.5 18.5t-36.5 5.5q-14 0 -58 -14l-14 14q46 77 106 77q36 0 99 -26q41 -17 77 -25t68 -8q30 0 52 5t68 24z" />
    <glyph glyph-name="uni06440623.isol" unicode="&#xfedf;&#xfe84;" horiz-adv-x="996" arabic-form="isolated" 
d="M964 1356q0 -70 -14 -141q-6 -30 -28 -109l-72 28q0 -118 -28 -235t-90 -231q55 -99 64 -116q24 -46 24 -83v-31q0 -25 -16 -204q-114 -54 -203.5 -70t-266.5 -16v296q101 52 144.5 87.5t113.5 122.5q-114 144 -166 203q-42 48 -108 111q-16 -33 -23.5 -43.5t-14.5 -10.5
q-24 0 -90 41q-59 37 -91 66t-48.5 108.5t-16.5 202.5q0 54 6.5 75t27.5 21q39 0 158 -112q102 -96 182 -192q63 -69 114 -138q46 -61 144 -210q45 85 62 217q10 80 10 191q-36 17 -49 33.5t-13 44.5q0 60 13 122t43 130l42 -14q0 -64 30 -85q24 -17 160 -59zM702 486
l-48 74q-44 -49 -67.5 -69.5t-82.5 -62.5q76 8 108.5 17.5t89.5 40.5zM335 1635q-9 -32 -24 -47q-11 -11 -34 -18l-216 -66q20 36 35 49.5t52 27.5q-28 18 -40.5 33.5t-12.5 30.5q0 13 8 29.5t21 32.5q65 87 129 87q19 0 30.5 -12.5t11.5 -32.5q0 -16 -4.5 -27.5
t-18.5 -34.5q-50 25 -68 25t-36 -9q-12 -6 -22 -16q0 -13 48 -40t69 -27q13 0 72 15z" />
    <glyph glyph-name="uni06440623.fina" unicode="&#xfee0;&#xfe84;" horiz-adv-x="1108" arabic-form="final" 
d="M716 794q0 -30 -9 -55.5t-33 -66.5q-59 133 -130 218t-168 136q0 -43 -10 -62.5t-28 -19.5q-30 0 -110 57q-86 61 -124 117q-27 39 -40.5 113t-13.5 121q0 72 38 72q59 0 176 -69.5t220 -166.5q232 -214 232 -394zM1108 293h-73q-63 0 -119 103q-60 110 -60 252
q-88 -263 -246 -361q-153 -95 -468 -95l-116 2v64q72 25 142.5 49.5t105.5 42.5q204 103 276 150q128 83 185 174q67 107 67 262q0 93 -14.5 181t-29.5 175q0 68 116 276q52 -171 66 -447q8 -195 17 -390q16 -166 78 -166h73v-272zM335 1635q-9 -32 -24 -47q-11 -11 -34 -18
l-216 -66q20 36 35 49.5t52 27.5q-28 18 -40.5 33.5t-12.5 30.5q0 13 8 29.5t21 32.5q65 87 129 87q19 0 30.5 -12.5t11.5 -32.5q0 -16 -4.5 -27.5t-18.5 -34.5q-50 25 -68 25t-36 -9q-12 -6 -22 -16q0 -13 48 -40t69 -27q13 0 72 15z" />
    <glyph glyph-name="uni06440625.isol" unicode="&#xfedf;&#xfe88;" horiz-adv-x="996" arabic-form="isolated" 
d="M964 1356q0 -70 -14 -141q-6 -30 -28 -109l-72 28q0 -118 -28 -235t-90 -231q55 -99 64 -116q24 -46 24 -83v-31q0 -25 -16 -204q-114 -54 -203.5 -70t-266.5 -16v296q101 52 144.5 87.5t113.5 122.5q-114 144 -166 203q-42 48 -108 111q-16 -33 -23.5 -43.5t-14.5 -10.5
q-24 0 -90 41q-59 37 -91 66t-48.5 108.5t-16.5 202.5q0 54 6.5 75t27.5 21q39 0 158 -112q102 -96 182 -192q63 -69 114 -138q46 -61 144 -210q45 85 62 217q10 80 10 191q-36 17 -49 33.5t-13 44.5q0 60 13 122t43 130l42 -14q0 -64 30 -85q24 -17 160 -59zM702 486
l-48 74q-44 -49 -67.5 -69.5t-82.5 -62.5q76 8 108.5 17.5t89.5 40.5zM668 -115q-9 -32 -24 -47q-11 -11 -34 -18l-216 -66q20 36 35 49.5t52 27.5q-28 18 -40.5 33.5t-12.5 30.5q0 13 8 29.5t21 32.5q65 87 129 87q19 0 30.5 -12.5t11.5 -32.5q0 -16 -4.5 -27.5
t-18.5 -34.5q-50 25 -68 25t-36 -9q-12 -6 -22 -16q0 -13 48 -40t69 -27q13 0 72 15z" />
    <glyph glyph-name="uni06440625.fina" unicode="&#xfee0;&#xfe88;" horiz-adv-x="1108" arabic-form="final" 
d="M716 794q0 -30 -9 -55.5t-33 -66.5q-59 133 -130 218t-168 136q0 -43 -10 -62.5t-28 -19.5q-30 0 -110 57q-86 61 -124 117q-27 39 -40.5 113t-13.5 121q0 72 38 72q59 0 176 -69.5t220 -166.5q232 -214 232 -394zM1108 293h-73q-63 0 -119 103q-60 110 -60 252
q-88 -263 -246 -361q-153 -95 -468 -95l-116 2v64q72 25 142.5 49.5t105.5 42.5q204 103 276 150q128 83 185 174q67 107 67 262q0 93 -14.5 181t-29.5 175q0 68 116 276q52 -171 66 -447q8 -195 17 -390q16 -166 78 -166h73v-272zM419 -115q-9 -32 -24 -47q-11 -11 -34 -18
l-216 -66q20 36 35 49.5t52 27.5q-28 18 -40.5 33.5t-12.5 30.5q0 13 8 29.5t21 32.5q65 87 129 87q19 0 30.5 -12.5t11.5 -32.5q0 -16 -4.5 -27.5t-18.5 -34.5q-50 25 -68 25t-36 -9q-12 -6 -22 -16q0 -13 48 -40t69 -27q13 0 72 15z" />
    <glyph glyph-name="uni06440627.isol" unicode="&#xfedf;&#xfe8e;" horiz-adv-x="996" arabic-form="isolated" 
d="M964 1356q0 -70 -14 -141q-6 -30 -28 -109l-72 28q0 -118 -28 -235t-90 -231q55 -99 64 -116q24 -46 24 -83v-31q0 -25 -16 -204q-114 -54 -203.5 -70t-266.5 -16v296q101 52 144.5 87.5t113.5 122.5q-114 144 -166 203q-42 48 -108 111q-16 -33 -23.5 -43.5t-14.5 -10.5
q-24 0 -90 41q-59 37 -91 66t-48.5 108.5t-16.5 202.5q0 54 6.5 75t27.5 21q39 0 158 -112q102 -96 182 -192q63 -69 114 -138q46 -61 144 -210q45 85 62 217q10 80 10 191q-36 17 -49 33.5t-13 44.5q0 60 13 122t43 130l42 -14q0 -64 30 -85q24 -17 160 -59zM702 486
l-48 74q-44 -49 -67.5 -69.5t-82.5 -62.5q76 8 108.5 17.5t89.5 40.5z" />
    <glyph glyph-name="uni06440627.fina" unicode="&#xfee0;&#xfe8e;" horiz-adv-x="1108" arabic-form="final" 
d="M716 794q0 -30 -9 -55.5t-33 -66.5q-59 133 -130 218t-168 136q0 -43 -10 -62.5t-28 -19.5q-30 0 -110 57q-86 61 -124 117q-27 39 -40.5 113t-13.5 121q0 72 38 72q59 0 176 -69.5t220 -166.5q232 -214 232 -394zM1108 293h-73q-63 0 -119 103q-60 110 -60 252
q-88 -263 -246 -361q-153 -95 -468 -95l-116 2v64q72 25 142.5 49.5t105.5 42.5q204 103 276 150q128 83 185 174q67 107 67 262q0 93 -14.5 181t-29.5 175q0 68 116 276q52 -171 66 -447q8 -195 17 -390q16 -166 78 -166h73v-272z" />
    <glyph glyph-name="lillah" unicode="&#xfedf;&#xfee0;&#x6c1;" horiz-adv-x="1440" 
d="M780 1578l-20 -36q-37 87 -68 127t-98 83l-36 132q71 -22 117 -76q62 -73 105 -230zM948 1424q0 -69 -26 -110.5t-70 -41.5q-13 0 -26.5 4t-35.5 16q-30 -51 -53.5 -71.5t-52.5 -20.5q-28 0 -51 32.5t-23 75.5q0 18 4 36q8 31 14 56l14 6q-1 -11 -1 -17q0 -31 9 -51
q14 -30 46 -30q34 0 56 40.5t22 115.5l18 6q12 -54 24 -71t36 -17q45 0 59 71q4 23 5 71l18 8q8 -31 11 -57t3 -51zM1354 570q0 -51 -15.5 -141t-30.5 -147q-9 -33 -31 -40.5t-103 -7.5q-80 0 -116 18t-68 68q-65 -71 -138 -104q-66 -30 -140 -30q-77 0 -122 45t-80 159
q-56 -63 -93 -96q-52 -46 -83 -46q-107 0 -197.5 25.5t-90.5 50.5q0 37 60 158t114 190q34 45 67 65q57 30 111 59l2 52q0 40 13.5 87.5t48.5 122.5l126 -453q19 -68 46.5 -96.5t83.5 -28.5q51 0 103 25t86 63l-97 314q-9 31 -11.5 44.5t-2.5 27.5q0 53 18 113q14 46 44 103
l142 -442q45 -137 78.5 -174.5t109.5 -37.5q47 0 56 30l-122 391q-8 27 -13 50.5t-5 38.5q0 46 14.5 97.5t43.5 112.5l152 -466q22 -66 31 -110t9 -90zM472 548l-34 108q-68 -28 -109 -60t-41 -56q0 -6 44 -17t70 -11q12 0 32.5 10.5t37.5 25.5z" />
    <glyph glyph-name="uni06440671.isol" unicode="&#xfedf;&#xfb51;" horiz-adv-x="996" 
d="M964 1356q0 -70 -14 -141q-6 -30 -28 -109l-72 28q0 -118 -28 -235t-90 -231q55 -99 64 -116q24 -46 24 -83v-31q0 -25 -16 -204q-114 -54 -203.5 -70t-266.5 -16v296q101 52 144.5 87.5t113.5 122.5q-114 144 -166 203q-42 48 -108 111q-16 -33 -23.5 -43.5t-14.5 -10.5
q-24 0 -90 41q-59 37 -91 66t-48.5 108.5t-16.5 202.5q0 54 6.5 75t27.5 21q39 0 158 -112q102 -96 182 -192q63 -69 114 -138q46 -61 144 -210q45 85 62 217q10 80 10 191q-36 17 -49 33.5t-13 44.5q0 60 13 122t43 130l42 -14q0 -64 30 -85q24 -17 160 -59zM702 486
l-48 74q-44 -49 -67.5 -69.5t-82.5 -62.5q76 8 108.5 17.5t89.5 40.5zM431 1724q0 -53 -48 -97q-52 -48 -124 -48h-167q-31 0 -31 -45q0 -5 2 -18q1 -12 0 -18q-48 49 -48 101q0 66 76 66h24q118 159 234 159q82 0 82 -100zM341 1725q0 38 -32 38q-55 0 -140 -98h82
q90 0 90 60z" />
    <glyph glyph-name="uni06440671.fina" unicode="&#xfee0;&#xfb51;" horiz-adv-x="1108" 
d="M716 794q0 -30 -9 -55.5t-33 -66.5q-59 133 -130 218t-168 136q0 -43 -10 -62.5t-28 -19.5q-30 0 -110 57q-86 61 -124 117q-27 39 -40.5 113t-13.5 121q0 72 38 72q59 0 176 -69.5t220 -166.5q232 -214 232 -394zM1108 293h-73q-63 0 -119 103q-60 110 -60 252
q-88 -263 -246 -361q-153 -95 -468 -95l-116 2v64q72 25 142.5 49.5t105.5 42.5q204 103 276 150q128 83 185 174q67 107 67 262q0 93 -14.5 181t-29.5 175q0 68 116 276q52 -171 66 -447q8 -195 17 -390q16 -166 78 -166h73v-272zM431 1724q0 -53 -48 -97q-52 -48 -124 -48
h-167q-31 0 -31 -45q0 -5 2 -18q1 -12 0 -18q-48 49 -48 101q0 66 76 66h24q118 159 234 159q82 0 82 -100zM341 1725q0 38 -32 38q-55 0 -140 -98h82q90 0 90 60z" />
    <glyph glyph-name="uni0622" unicode="&#x622;" horiz-adv-x="488" arabic-form="isolated" 
d="M370 584q0 -89 -21 -162.5t-81 -197.5l-60 24q24 128 24 208q0 61 -10 179t-25 233.5t-49 275.5q-12 56 -12 77q0 31 31 105.5t87 180.5l60 -354q33 -202 46 -350q10 -114 10 -219zM488 1656q-44 -49 -85 -69t-101 -20q-34 0 -66.5 7t-78.5 26q-29 13 -48.5 18.5
t-36.5 5.5q-14 0 -58 -14l-14 14q46 77 106 77q36 0 99 -26q41 -17 77 -25t68 -8q30 0 52 5t68 24z" />
    <glyph glyph-name="uni0623" unicode="&#x623;" horiz-adv-x="444" arabic-form="isolated" 
d="M370 1635q-11 -29 -26 -44q-11 -11 -34 -18l-216 -66q20 36 35 49.5t54 24.5q-28 18 -40.5 33.5t-12.5 30.5q0 13 8 29.5t21 32.5q65 87 129 87q19 0 30.5 -12.5t11.5 -32.5q0 -16 -4.5 -27.5t-18.5 -34.5q-50 25 -68 25t-36 -9q-12 -6 -22 -16q0 -13 48 -40t69 -27
q13 0 72 15zM372 584q0 -89 -21 -162.5t-81 -197.5l-60 24q24 128 24 208q0 61 -10 179t-25 233.5t-49 275.5q-12 56 -12 77q0 31 31 105.5t87 180.5l60 -354q33 -202 46 -350q10 -114 10 -219z" />
    <glyph glyph-name="uni0624" unicode="&#x624;" horiz-adv-x="924" arabic-form="isolated" 
d="M924 362q0 -172 -146 -340t-288 -168q-83 0 -181.5 53t-302.5 209l42 58q108 -72 177 -96q57 -20 129 -20q97 0 192 54q112 64 232 206q-42 -6 -70 -6q-99 0 -157.5 64.5t-58.5 175.5q0 150 69 289q75 151 171 151q80 0 136 -109t56 -263v-258zM804 565q-28 161 -114 161
q-31 0 -49.5 -24.5t-18.5 -53.5q0 -36 39.5 -59.5t104.5 -23.5h38zM546 1195q-9 -32 -24 -47q-11 -11 -34 -18l-216 -66q20 36 35 49.5t52 27.5q-28 18 -40.5 33.5t-12.5 30.5q0 13 8 29.5t21 32.5q65 87 129 87q19 0 30.5 -12.5t11.5 -32.5q0 -16 -4.5 -27.5t-18.5 -34.5
q-50 25 -68 25t-36 -9q-12 -6 -22 -16q0 -13 48 -40t69 -27q13 0 72 15z" />
    <glyph glyph-name="uni0625" unicode="&#x625;" horiz-adv-x="444" arabic-form="isolated" 
d="M368 -50q-9 -32 -24 -47q-11 -11 -34 -18l-216 -66q20 36 35 49.5t52 27.5q-28 18 -40.5 33.5t-12.5 30.5q0 13 8 29.5t21 32.5q65 87 129 87q19 0 30.5 -12.5t11.5 -32.5q0 -16 -4.5 -27.5t-18.5 -34.5q-50 25 -68 25t-36 -9q-12 -6 -22 -16q0 -13 48 -40t69 -27
q13 0 72 15zM370 584q0 -89 -21 -162.5t-81 -197.5l-60 24q24 128 24 208q0 61 -10 179t-25 233.5t-49 275.5q-12 56 -12 77q0 31 31 105.5t87 180.5l60 -354q33 -202 46 -350q10 -114 10 -219z" />
    <glyph glyph-name="uni0626" unicode="&#x626;" horiz-adv-x="1320" arabic-form="isolated" 
d="M1177 780q0 -55 -11 -91t-47 -95q-27 71 -45.5 92.5t-53.5 21.5q-54 0 -148.5 -61.5t-94.5 -103.5q0 -22 38 -31q27 -6 84 -6h29.5t29.5 1q109 0 145 -22q31 -19 31 -74q0 -108 -40 -207q-50 -125 -145 -178q-119 -67 -247.5 -108t-239.5 -41q-311 0 -311 279
q0 141 35 243q39 114 165 309l46 -30q-74 -125 -111 -222.5t-37 -170.5q0 -189 213 -189q80 0 152 14.5t146 40.5q48 17 110 44q99 44 105 47q45 24 45 43q0 10 -48.5 12.5t-68.5 2.5q-154 0 -206 44q-42 36 -42 133q0 46 29.5 116t77.5 139q73 105 146 159t143 54
q58 0 92 -45t34 -120zM461 960q-9 -32 -24 -47q-11 -11 -34 -18l-216 -66q20 36 35 49.5t52 27.5q-28 18 -40.5 33.5t-12.5 30.5q0 13 8 29.5t21 32.5q65 87 129 87q19 0 30.5 -12.5t11.5 -32.5q0 -16 -4.5 -27.5t-18.5 -34.5q-50 25 -68 25t-36 -9q-12 -6 -22 -16
q0 -13 48 -40t69 -27q13 0 72 15z" />
    <glyph glyph-name="uni0627" unicode="&#x627;" horiz-adv-x="444" arabic-form="isolated" 
d="M370 584q0 -89 -21 -162.5t-81 -197.5l-60 24q24 128 24 208q0 61 -10 179t-25 233.5t-49 275.5q-12 56 -12 77q0 31 31 105.5t87 180.5l60 -354q33 -202 46 -350q10 -114 10 -219z" />
    <glyph glyph-name="uni0628" unicode="&#x628;" horiz-adv-x="1330" arabic-form="isolated" 
d="M1330 293h-839q-121 0 -160.5 4t-85.5 21q-82 28 -135 114t-53 192q0 41 4 73.5t16 76.5q17 65 38 109t74 119l56 -40q-43 -79 -58.5 -125t-15.5 -91q0 -57 36.5 -102.5t95.5 -59.5q35 -9 91.5 -14t118.5 -5h723q-28 76 -46 108q-21 38 -68 97l90 232q75 -107 98 -196
q20 -78 20 -230v-283zM939 82l-120 -224l-232 126l120 228z" />
    <glyph glyph-name="uni0629" unicode="&#x629;" horiz-adv-x="702" arabic-form="isolated" 
d="M572 1461l-110 -204l-142 80l-80 -158l-186 102l104 194l148 -74l84 162zM622 668q0 -60 -9.5 -121.5t-24.5 -100.5q-28 -76 -138 -134q-102 -54 -192 -54q-78 0 -124 54t-46 144q0 82 23.5 161t84.5 199l-36 24q17 46 46 111.5t52 110.5l98 -58q64 -39 122 -84
q82 -62 113 -116.5t31 -135.5zM474 588q0 19 -69.5 79t-136.5 103q-64 -101 -64 -168q0 -32 26.5 -55t63.5 -23q50 0 115 23.5t65 40.5z" />
    <glyph glyph-name="uni062A" unicode="&#x62a;" horiz-adv-x="1330" arabic-form="isolated" 
d="M977 1242l-110 -204l-142 80l-80 -158l-186 102l104 194l148 -74l84 162zM1330 293h-839q-121 0 -160.5 4t-85.5 21q-82 28 -135 114t-53 192q0 41 4 73.5t16 76.5q17 65 38 109t74 119l56 -40q-43 -79 -58.5 -125t-15.5 -91q0 -57 36.5 -102.5t95.5 -59.5
q35 -9 91.5 -14t118.5 -5h723q-28 76 -46 108q-21 38 -68 97l90 232q75 -107 98 -196q20 -78 20 -230v-283z" />
    <glyph glyph-name="uni062B" unicode="&#x62b;" horiz-adv-x="1330" arabic-form="isolated" 
d="M781 1473l-100 -208l-188 100l102 204zM975 1236l-110 -204l-142 80l-80 -158l-186 102l104 194l148 -74l84 162zM1330 294h-846q-134 0 -200 16t-118 58q-50 44 -78 112t-28 150q0 94 28.5 174.5t101.5 197.5l56 -36q-42 -86 -57 -130.5t-15 -85.5q0 -97 79.5 -140.5
t254.5 -43.5h726q-22 71 -40.5 106.5t-71.5 101.5l88 230q40 -55 56.5 -87t34 -89.5t23.5 -111.5t6 -158v-264z" />
    <glyph glyph-name="uni062C" unicode="&#x62c;" horiz-adv-x="1182" arabic-form="isolated" 
d="M1152 -178l-386 -238q-356 0 -524 136q-172 140 -172 440q0 207 82 365.5t260 284.5q-119 0 -210 -35q-33 -13 -150 -67q48 372 354 372q46 0 151 -10.5t185 -15.5q152 -10 300 -10l-60 -246q-383 -48 -584.5 -184.5t-201.5 -349.5q0 -200 165.5 -306t476.5 -106
q8 0 151 9q79 5 143 5zM834 354l-120 -230l-234 130l124 228z" />
    <glyph glyph-name="uni062D" unicode="&#x62d;" horiz-adv-x="1182" arabic-form="isolated" 
d="M1152 -178l-386 -238q-356 0 -524 136q-172 140 -172 440q0 207 82 365.5t260 284.5q-119 0 -210 -35q-33 -13 -150 -67q48 372 354 372q46 0 151 -10.5t185 -15.5q152 -10 300 -10l-60 -246q-383 -48 -584.5 -184.5t-201.5 -349.5q0 -200 165.5 -306t476.5 -106
q8 0 151 9q79 5 143 5z" />
    <glyph glyph-name="uni062E" unicode="&#x62e;" horiz-adv-x="1182" arabic-form="isolated" 
d="M712 1403l-120 -224l-234 122l120 226zM1152 -178l-386 -238q-356 0 -524 136q-172 140 -172 440q0 207 82 365.5t260 284.5q-119 0 -210 -35q-33 -13 -150 -67q48 372 354 372q46 0 151 -10.5t185 -15.5q152 -10 300 -10l-60 -246q-383 -48 -584.5 -184.5t-201.5 -349.5
q0 -200 165.5 -306t476.5 -106q8 0 151 9q79 5 143 5z" />
    <glyph glyph-name="uni062F" unicode="&#x62f;" horiz-adv-x="702" arabic-form="isolated" 
d="M702 293h-453q-66 0 -101 28q-43 34 -43 111q0 44 4.5 95t13.5 103l38 2q8 -35 35.5 -51t66.5 -16h344q-23 147 -80 235q-47 73 -131 126l72 312q130 -97 184 -250q50 -141 50 -374v-321z" />
    <glyph glyph-name="uni0630" unicode="&#x630;" horiz-adv-x="702" arabic-form="isolated" 
d="M531 1607l-120 -224l-234 122l125 226zM702 293h-453q-66 0 -101 28q-43 34 -43 111q0 44 4.5 95t13.5 103l38 2q8 -35 35.5 -51t66.5 -16h344q-23 147 -80 235q-47 73 -131 126l72 312q130 -97 184 -250q50 -141 50 -374v-321z" />
    <glyph glyph-name="uni0631" unicode="&#x631;" horiz-adv-x="886" arabic-form="isolated" 
d="M886 270q0 -61 -70 -161.5t-164 -174.5q-104 -82 -178 -82q-88 0 -189 50q-88 43 -275 172l42 62q90 -60 145 -81t119 -21q69 0 138 39t188 145q166 148 166 228q0 40 -32 105q-36 74 -88 123l56 270q68 -70 105 -161t37 -207v-306z" />
    <glyph glyph-name="uni0632" unicode="&#x632;" horiz-adv-x="886" arabic-form="isolated" 
d="M835 1295l-120 -224l-234 122l119 226zM886 270q0 -61 -70 -161.5t-164 -174.5q-104 -82 -178 -82q-88 0 -189 50q-88 43 -275 172l42 62q90 -60 145 -81t119 -21q69 0 138 39t188 145q166 148 166 228q0 40 -32 105q-36 74 -88 123l56 270q68 -70 105 -161t37 -207v-306
z" />
    <glyph glyph-name="uni0633" unicode="&#x633;" horiz-adv-x="1842" arabic-form="isolated" 
d="M1842 294q-110 0 -157 10t-175 56q-58 -41 -103.5 -54t-136.5 -13h-163q0 -232 -148 -334q-129 -89 -389 -89q-243 0 -374.5 88.5t-131.5 251.5q0 139 42 254q46 127 180 330l60 -42q-99 -169 -129.5 -245t-30.5 -157q0 -105 112.5 -171.5t295.5 -66.5q180 0 303 69
t123 169q0 62 -21.5 123t-92.5 195l88 270q71 -120 94 -198q20 -68 20 -175h92q151 0 210.5 35.5t59.5 127.5q0 40 7.5 58.5t35.5 38.5l47 33q2 -19 3 -51.5t1 -42.5q0 -55 -16 -146q46 -15 92.5 -27.5t87.5 -18.5q0 36 -25 88t-25 68q0 12 3.5 23t16.5 29l94 134
q27 -63 38.5 -114.5t11.5 -128.5v-377z" />
    <glyph glyph-name="uni0634" unicode="&#x634;" horiz-adv-x="1842" arabic-form="isolated" 
d="M1566 1489l-100 -208l-188 100l102 204zM1760 1252l-110 -204l-142 80l-80 -158l-186 102l104 194l148 -74l84 162zM1842 294q-110 0 -157 10t-175 56q-58 -41 -103.5 -54t-136.5 -13h-163q0 -232 -148 -334q-129 -89 -389 -89q-243 0 -374.5 88.5t-131.5 251.5
q0 139 42 254q46 127 180 330l60 -42q-99 -169 -129.5 -245t-30.5 -157q0 -105 112.5 -171.5t295.5 -66.5q180 0 303 69t123 169q0 62 -21.5 123t-92.5 195l88 270q71 -120 94 -198q20 -68 20 -175h92q151 0 210.5 35.5t59.5 127.5q0 40 7.5 58.5t35.5 38.5l47 33
q2 -19 3 -51.5t1 -42.5q0 -55 -16 -146q46 -15 92.5 -27.5t87.5 -18.5q0 36 -25 88t-25 68q0 12 3.5 23t16.5 29l94 134q27 -63 38.5 -114.5t11.5 -128.5v-377z" />
    <glyph glyph-name="uni0635" unicode="&#x635;" horiz-adv-x="2176" arabic-form="isolated" 
d="M2176 293h-1069q0 -233 -148 -335q-128 -88 -389 -88q-243 0 -374.5 88.5t-131.5 251.5q0 139 42 254q46 127 180 330l60 -42q-99 -169 -129.5 -245t-30.5 -157q0 -105 112.5 -171.5t295.5 -66.5q180 0 303 69t123 169q0 62 -21.5 123t-92.5 195l88 270q55 -106 62 -122
q29 -61 40.5 -114t11.5 -137q65 0 118 33q6 4 99 70l358 256q84 59 126 80q58 28 117 28q112 0 176 -79q74 -91 74 -277v-383zM2044 667q0 38 -62 67t-149 29q-66 0 -148.5 -42.5t-239.5 -155.5h262q337 0 337 102z" />
    <glyph glyph-name="uni0636" unicode="&#x636;" horiz-adv-x="2176" arabic-form="isolated" 
d="M1658 1367l-120 -224l-234 122l121 226zM2176 293h-1069q0 -233 -148 -335q-128 -88 -389 -88q-243 0 -374.5 88.5t-131.5 251.5q0 139 42 254q46 127 180 330l60 -42q-99 -169 -129.5 -245t-30.5 -157q0 -105 112.5 -171.5t295.5 -66.5q180 0 303 69t123 169
q0 62 -21.5 123t-92.5 195l88 270q55 -106 62 -122q29 -61 40.5 -114t11.5 -137q65 0 118 33q6 4 99 70l358 256q84 59 126 80q58 28 117 28q112 0 176 -79q74 -91 74 -277v-383zM2044 667q0 38 -62 67t-149 29q-66 0 -148.5 -42.5t-239.5 -155.5h262q337 0 337 102z" />
    <glyph glyph-name="uni0637" unicode="&#x637;" horiz-adv-x="1072" arabic-form="isolated" 
d="M1072 293h-1142v272h133q24 0 135 83q37 27 107 84q0 123 -9 208t-29 177q-5 22 -54 217l-58 36q23 105 38 150.5t58 143.5l46 -18q0 -6 -4 -26q0 -35 99 -83q33 -16 99 -41q-10 -78 -32 -146q-11 -34 -40 -106l-36 12q31 -142 41.5 -209.5t10.5 -120.5v-11
q0 -29 -1.5 -45.5t-8.5 -51.5q52 38 105 76q81 57 145 92q84 46 128 46q118 0 189 -61q80 -69 80 -199v-479zM933 667q0 35 -74 65.5t-130 30.5q-66 0 -148.5 -42.5t-239.5 -155.5h262q330 0 330 102z" />
    <glyph glyph-name="uni0638" unicode="&#x638;" horiz-adv-x="1072" arabic-form="isolated" 
d="M916 1367l-120 -224l-234 122l121 226zM1072 293h-1142v272h133q24 0 135 83q37 27 107 84q0 123 -9 208t-29 177q-5 22 -54 217l-58 36q23 105 38 150.5t58 143.5l46 -18q0 -6 -4 -26q0 -35 99 -83q33 -16 99 -41q-10 -78 -32 -146q-11 -34 -40 -106l-36 12
q31 -142 41.5 -209.5t10.5 -120.5v-11q0 -29 -1.5 -45.5t-8.5 -51.5q52 38 105 76q81 57 145 92q84 46 128 46q118 0 189 -61q80 -69 80 -199v-479zM933 667q0 35 -74 65.5t-130 30.5q-66 0 -148.5 -42.5t-239.5 -155.5h262q330 0 330 102z" />
    <glyph glyph-name="uni0639" unicode="&#x639;" horiz-adv-x="1108" arabic-form="isolated" 
d="M1096 -182l-378 -234l-102 -2q-279 0 -421.5 119.5t-142.5 350.5q0 149 39 263q44 129 141 225q-50 57 -88 132t-38 122q0 57 43 170t85 160q34 43 102.5 68.5t147.5 25.5q110 0 203 -50.5t157 -145.5q-30 0 -57 1t-57 3q-207 0 -334.5 -33t-127.5 -87q0 -42 44 -84
q52 -50 168 -100q138 60 212 83.5t230 58.5q-28 -87 -43 -127q-18 -46 -53 -119q-304 -72 -482 -201t-178 -275q0 -137 153 -210q175 -84 549 -84h24q59 0 86.5 1.5t99.5 8.5z" />
    <glyph glyph-name="uni063A" unicode="&#x63a;" horiz-adv-x="1108" arabic-form="isolated" 
d="M599 1559l-120 -224l-234 122l121 226zM1096 -182l-378 -234l-102 -2q-279 0 -421.5 119.5t-142.5 350.5q0 149 39 263q44 129 141 225q-50 57 -88 132t-38 122q0 57 43 170t85 160q34 43 102.5 68.5t147.5 25.5q110 0 203 -50.5t157 -145.5q-30 0 -57 1t-57 3
q-207 0 -334.5 -33t-127.5 -87q0 -42 44 -84q52 -50 168 -100q138 60 212 83.5t230 58.5q-28 -87 -43 -127q-18 -46 -53 -119q-304 -72 -482 -201t-178 -275q0 -137 153 -210q175 -84 549 -84h24q59 0 86.5 1.5t99.5 8.5z" />
    <glyph glyph-name="uni0641" unicode="&#x641;" horiz-adv-x="1552" arabic-form="isolated" 
d="M1474 1472l-120 -224l-234 122l120 226zM1552 293h-134q-175 0 -397 -8q-134 -5 -348 -15t-230 -10q-213 0 -308 75q-88 70 -88 217q0 114 22 199t102 275l66 -30q-72 -171 -72 -250q0 -103 81 -148q90 -50 311 -50q153 9 298 15.5t278 6.5q-41 20 -56.5 44.5t-15.5 71.5
q0 143 87 285q94 153 207 153q106 0 154 -148q43 -134 43 -411v-272zM1396 692q-35 98 -58 129t-60 31q-19 0 -33.5 -14.5t-14.5 -37.5q0 -31 43 -58t123 -50z" />
    <glyph glyph-name="uni0642" unicode="&#x642;" horiz-adv-x="1254" arabic-form="isolated" 
d="M1212 1246l-110 -204l-142 80l-80 -158l-186 102l104 194l148 -74l84 162zM1254 266q0 -197 -22 -260.5t-105 -129.5q-181 -142 -512 -142q-278 0 -427 91t-149 261q0 147 46 267q51 132 190 325l60 -42q-91 -132 -129.5 -223t-38.5 -177q0 -122 126 -190t354 -68
q206 0 364 80t158 182q0 13 -0.5 27t-5.5 33q-105 -10 -156 -10q-110 0 -172 55t-62 155q0 147 74 293q80 157 178 157q108 0 171 -155q58 -142 58 -353v-176zM1073 566q-27 62 -55 88t-67 26q-25 0 -39.5 -15.5t-14.5 -40.5q0 -66 84 -66q30 0 44 1.5t48 6.5z" />
    <glyph glyph-name="uni0643" unicode="&#x643;" horiz-adv-x="1108" arabic-form="isolated" 
d="M765 1038q0 -133 -78.5 -207.5t-219.5 -74.5q-39 0 -62.5 2t-77.5 12l12 64h18q99 0 182.5 27.5t83.5 64.5q0 14 -10 19.5t-40 8.5q-96 0 -96 84q0 60 23.5 133.5t66.5 148.5q28 46 57 68t87 40q-2 -39 -3 -85t-1 -81q-54 -15 -90 -42q-32 -24 -32 -42q0 -21 68 -30
q62 0 87 -25t25 -85zM1108 293h-671q-216 0 -311 74q-85 66 -85 205q0 93 28.5 182.5t97.5 213.5l60 -42q-39 -77 -50.5 -114.5t-11.5 -79.5q0 -96 71 -131.5t271 -35.5h481l-121 679l-64 42q0 59 18 119q23 76 78 181l46 -24q0 -6 -4 -32q0 -33 42 -64q37 -28 118 -62
q-9 -64 -26.5 -125t-39.5 -109l-36 14l109 -619v-272z" />
    <glyph glyph-name="uni0644" unicode="&#x644;" horiz-adv-x="924" arabic-form="isolated" 
d="M924 318q0 -154 -160 -273t-365 -119q-171 0 -267.5 86.5t-96.5 241.5q0 145 36 253q41 122 160 299l62 -42q-78 -117 -111 -203t-33 -171q0 -91 67.5 -140.5t190.5 -49.5q176 0 286 68t110 178v30v17q0 39 -6.5 86t-33.5 194q-43 237 -86 475l-50 36q0 98 92 300l46 -22
q-4 -14 -4 -32q0 -40 41 -65q61 -34 115 -65q-11 -86 -22 -123t-46 -111l-30 12q0 -15 28.5 -170.5t48.5 -268.5q28 -162 28 -197v-224z" />
    <glyph glyph-name="uni0645" unicode="&#x645;" horiz-adv-x="738" arabic-form="isolated" 
d="M738 293l-130 1q-183 0 -324 -31t-141 -71q39 -120 69.5 -225t30.5 -199q0 -68 -13.5 -110t-50.5 -92q-11 132 -49 277q-13 51 -65 215q-32 101 -32 134q0 47 26 117q21 57 48 101q32 50 111.5 79t242.5 47q-80 112 -140 112q-26 0 -49 -20t-75 -88l-48 24
q44 153 108.5 235.5t141.5 82.5q67 0 149 -77t190 -240v-272z" />
    <glyph glyph-name="uni0646" unicode="&#x646;" horiz-adv-x="1108" arabic-form="isolated" 
d="M779 1129l-120 -224l-234 122l121 226zM1108 342q0 -138 -27 -221.5t-88.5 -134.5t-180 -83.5t-244.5 -32.5q-243 0 -374.5 88.5t-131.5 251.5q0 139 42 254q46 127 180 330l60 -42q-99 -169 -129.5 -245t-30.5 -157q0 -105 112.5 -171.5t295.5 -66.5q180 0 303 69
t123 169q0 62 -21.5 123t-92.5 195l88 270q70 -127 86 -175q30 -87 30 -221v-200z" />
    <glyph glyph-name="uni0647" unicode="&#x647;" horiz-adv-x="702" arabic-form="isolated" 
d="M622 668q0 -60 -9.5 -121.5t-24.5 -100.5q-28 -76 -138 -134q-102 -54 -192 -54q-78 0 -124 54t-46 144q0 82 23.5 161t84.5 199l-36 24q17 46 46 111.5t52 110.5l98 -58q64 -39 122 -84q82 -62 113 -116.5t31 -135.5zM474 588q0 19 -69.5 79t-136.5 103
q-64 -101 -64 -168q0 -32 26.5 -55t63.5 -23q50 0 115 23.5t65 40.5z" />
    <glyph glyph-name="uni0648" unicode="&#x648;" horiz-adv-x="924" arabic-form="isolated" 
d="M924 362q0 -172 -146 -340t-288 -168q-83 0 -181.5 53t-302.5 209l42 58q108 -72 177 -96q57 -20 129 -20q97 0 192 54q112 64 232 206q-42 -6 -70 -6q-99 0 -157.5 64.5t-58.5 175.5q0 150 69 289q75 151 171 151q80 0 136 -109t56 -263v-258zM804 565q-28 161 -114 161
q-31 0 -49.5 -24.5t-18.5 -53.5q0 -36 39.5 -59.5t104.5 -23.5h38z" />
    <glyph glyph-name="uni0649" unicode="&#x649;" horiz-adv-x="1320" arabic-form="isolated" 
d="M1177 780q0 -55 -11 -91t-47 -95q-27 71 -45.5 92.5t-53.5 21.5q-54 0 -148.5 -61.5t-94.5 -103.5q0 -22 38 -31q27 -6 84 -6h29.5t29.5 1q109 0 145 -22q31 -19 31 -74q0 -108 -40 -207q-50 -125 -145 -178q-119 -67 -247.5 -108t-239.5 -41q-311 0 -311 279
q0 141 35 243q39 114 165 309l46 -30q-74 -125 -111 -222.5t-37 -170.5q0 -189 213 -189q80 0 152 14.5t146 40.5q48 17 110 44q99 44 105 47q45 24 45 43q0 10 -48.5 12.5t-68.5 2.5q-154 0 -206 44q-42 36 -42 133q0 46 29.5 116t77.5 139q73 105 146 159t143 54
q58 0 92 -45t34 -120z" />
    <glyph glyph-name="uni064A" unicode="&#x64a;" horiz-adv-x="1320" arabic-form="isolated" 
d="M1177 780q0 -55 -11 -91t-47 -95q-27 71 -45.5 92.5t-53.5 21.5q-54 0 -148.5 -61.5t-94.5 -103.5q0 -22 38 -31q27 -6 84 -6h29.5t29.5 1q109 0 145 -22q31 -19 31 -74q0 -108 -40 -207q-50 -125 -145 -178q-119 -67 -247.5 -108t-239.5 -41q-311 0 -311 279
q0 141 35 243q39 114 165 309l46 -30q-74 -125 -111 -222.5t-37 -170.5q0 -189 213 -189q80 0 152 14.5t146 40.5q48 17 110 44q99 44 105 47q45 24 45 43q0 10 -48.5 12.5t-68.5 2.5q-154 0 -206 44q-42 36 -42 133q0 46 29.5 116t77.5 139q73 105 146 159t143 54
q58 0 92 -45t34 -120zM912 -208l-74 -136l-154 78l-74 -132l-154 82l76 138l150 -78l74 128z" />
    <glyph glyph-name="uni066F.init" unicode="&#x66f;" horiz-adv-x="624" 
d="M624 293h-694v272h600q0 87 -5 124q-8 57 -33 99q-32 -62 -86 -95t-115 -33q-80 0 -135 53t-55 133q0 118 72 280q79 178 160 178q105 0 198 -183t93 -387v-441zM407 966q-27 47 -47.5 65.5t-44.5 18.5q-30 0 -54 -27t-24 -63q0 -23 18.5 -38.5t47.5 -15.5
q23 0 46.5 13.5t57.5 46.5z" />
    <glyph glyph-name="uni066F.medi" unicode="&#x66f;" horiz-adv-x="664" 
d="M664 293h-734v272h180q46 0 87 -4q110 -12 251 -27q-149 33 -208.5 87.5t-59.5 158.5q0 155 71.5 279.5t160.5 124.5q101 0 176.5 -174.5t75.5 -421.5v-295zM528 708q-36 86 -80 134t-88 48q-20 0 -35 -13t-15 -31q0 -43 64.5 -83.5t153.5 -54.5z" />
    <glyph glyph-name="uni0671" unicode="&#x671;" horiz-adv-x="444" arabic-form="isolated" 
d="M370 584q0 -89 -21 -162.5t-81 -197.5l-60 24q24 128 24 208q0 61 -10 179t-25 233.5t-49 275.5q-12 56 -12 77q0 31 31 105.5t87 180.5l60 -354q33 -202 46 -350q10 -114 10 -219zM431 1724q0 -53 -48 -97q-52 -48 -124 -48h-167q-31 0 -31 -45q0 -5 2 -18q1 -12 0 -18
q-48 49 -48 101q0 66 76 66h24q118 159 234 159q82 0 82 -100zM341 1725q0 38 -32 38q-55 0 -140 -98h82q90 0 90 60z" />
    <glyph glyph-name="uni0672.fina" unicode="&#x672;" horiz-adv-x="480" 
d="M480 293h-140q-117 0 -169 96q-58 106 -58 357v285q0 97 -27 151q-13 26 -60 75l108 250q58 -80 81 -158q27 -91 27 -232v-197q0 -209 28 -290q22 -65 70 -65h140v-272zM326 1658q0 -40 -94 -73q-76 -26 -129 -43q-7 -2 -16 -2q-16 0 -44.5 11.5t-39.5 11.5
q-17 0 -43 -35l-11 13q40 70 70 70q20 0 44 -11t43 -11q22 0 40 13q-68 35 -68 71q0 31 53 87q59 62 104 62q49 0 49 -49q0 -23 -23 -61q-31 28 -67 28q-65 0 -65 -30q0 -19 53 -44q49 -23 73 -23q33 0 71 15z" />
    <glyph glyph-name="uni0673.fina" unicode="&#x673;" horiz-adv-x="480" 
d="M480 293h-140q-117 0 -169 96q-58 106 -58 357v285q0 97 -27 151q-13 26 -60 75l108 250q58 -80 81 -158q27 -91 27 -232v-197q0 -209 28 -290q22 -65 70 -65h140v-272zM386 -42q0 -40 -94 -73q-76 -26 -129 -43q-7 -2 -16 -2q-16 0 -44.5 11.5t-39.5 11.5q-17 0 -43 -35
l-11 13q40 70 70 70q20 0 44 -11t43 -11q22 0 40 13q-68 35 -68 71q0 31 53 87q59 62 104 62q49 0 49 -49q0 -23 -23 -61q-31 28 -67 28q-65 0 -65 -30q0 -19 53 -44q49 -23 73 -23q33 0 71 15z" />
    <glyph glyph-name="uni0675.fina" unicode="&#x675;" horiz-adv-x="480" 
d="M480 293h-140q-117 0 -169 96q-58 106 -58 357v285q0 97 -27 151q-13 26 -60 75l108 250q58 -80 81 -158q27 -91 27 -232v-197q0 -209 28 -290q22 -65 70 -65h140v-272zM550 1363q-11 -29 -26 -44q-11 -11 -34 -18l-216 -66q20 36 35 49.5t54 24.5q-28 18 -40.5 33.5
t-12.5 30.5q0 13 8 29.5t21 32.5q65 87 129 87q19 0 30.5 -12.5t11.5 -32.5q0 -16 -4.5 -27.5t-18.5 -34.5q-50 25 -68 25t-36 -9q-12 -6 -22 -16q0 -13 48 -40t69 -27q13 0 72 15z" />
    <glyph glyph-name="uni0677" unicode="&#x677;" horiz-adv-x="924" arabic-form="isolated" 
d="M924 362q0 -172 -146 -340t-288 -168q-83 0 -181.5 53t-302.5 209l42 58q108 -72 177 -96q57 -20 129 -20q97 0 192 54q112 64 232 206q-42 -6 -70 -6q-99 0 -157.5 64.5t-58.5 175.5q0 150 69 289q75 151 171 151q80 0 136 -109t56 -263v-258zM804 565q-28 161 -114 161
q-31 0 -49.5 -24.5t-18.5 -53.5q0 -36 39.5 -59.5t104.5 -23.5h38zM1020 1263q-11 -29 -26 -44q-11 -11 -34 -18l-216 -66q20 36 35 49.5t54 24.5q-28 18 -40.5 33.5t-12.5 30.5q0 13 8 29.5t21 32.5q65 87 129 87q19 0 30.5 -12.5t11.5 -32.5q0 -16 -4.5 -27.5t-18.5 -34.5
q-50 25 -68 25t-36 -9q-12 -6 -22 -16q0 -13 48 -40t69 -27q13 0 72 15zM679 1224q0 -17 -3 -35l-6 -36l-83 50q-50 -55 -68 -73q-74 -72 -124 -72h-73q53 25 124 81q64 51 97 90q-31 19 -47 40q-20 26 -20 57q0 66 38.5 116.5t83.5 50.5q26 0 47 -28t21 -68
q0 -19 -5.5 -39.5t-25.5 -75.5q16 -14 33 -27q11 -11 11 -31zM604 1337q0 27 -19 50t-37 23q-10 0 -15.5 -7t-5.5 -14q0 -22 25 -46l44 -34q8 20 8 28z" />
    <glyph glyph-name="uni0678.fina" unicode="&#x678;" horiz-adv-x="1135" 
d="M1135 293h-85q-37 0 -59.5 -6t-22.5 -17q0 -6 49 -25t49 -59q0 -55 -16.5 -132.5t-45.5 -139.5q-22 -48 -123 -110q-108 -66 -245 -110q-157 -50 -298 -50q-162 0 -245 75t-83 219q0 158 38 274q46 140 188 366l56 -42q-94 -160 -129 -255t-35 -187t59 -145t163 -53
q127 0 273 39q132 35 226.5 84.5t94.5 81.5q0 10 -56 12t-100 2q-106 0 -137 8t-31 37q0 54 19.5 114t46.5 92q66 80 156 136q101 63 181 63h112v-272zM1130 863q-11 -29 -26 -44q-11 -11 -34 -18l-216 -66q20 36 35 49.5t54 24.5q-28 18 -40.5 33.5t-12.5 30.5q0 13 8 29.5
t21 32.5q65 87 129 87q19 0 30.5 -12.5t11.5 -32.5q0 -16 -4.5 -27.5t-18.5 -34.5q-50 25 -68 25t-36 -9q-12 -6 -22 -16q0 -13 48 -40t69 -27q13 0 72 15z" />
    <glyph glyph-name="uni0679" unicode="&#x679;" horiz-adv-x="1330" arabic-form="isolated" 
d="M1330 293h-839q-121 0 -160.5 4t-85.5 21q-82 28 -135 114t-53 192q0 41 4 73.5t16 76.5q17 65 38 109t74 119l56 -40q-43 -79 -58.5 -125t-15.5 -91q0 -57 36.5 -102.5t95.5 -59.5q35 -9 91.5 -14t118.5 -5h723q-28 76 -46 108q-21 38 -68 97l90 232q75 -107 98 -196
q20 -78 20 -230v-283zM965 1062h-544v130h64q12 0 64 39q22 16 51 40q0 101 -18 183l-26 104l-28 17q15 70 46 140l22 -9q-2 -6 -2 -12q0 -17 47 -40q11 -5 47 -19q-5 -39 -15 -70q-5 -14 -19 -50l-17 6q25 -115 25 -157v-6q0 -21 -5 -46q39 29 119 80q40 22 61 22
q128 0 128 -124v-228zM899 1240q0 28 -36 39q-21 7 -61 7q-60 0 -185 -94h125q157 0 157 48z" />
    <glyph glyph-name="uni067A" unicode="&#x67a;" horiz-adv-x="1330" arabic-form="isolated" 
d="M1330 293h-839q-121 0 -160.5 4t-85.5 21q-82 28 -135 114t-53 192q0 41 4 73.5t16 76.5q17 65 38 109t74 119l56 -40q-43 -79 -58.5 -125t-15.5 -91q0 -57 36.5 -102.5t95.5 -59.5q35 -9 91.5 -14t118.5 -5h723q-28 76 -46 108q-21 38 -68 97l90 232q75 -107 98 -196
q20 -78 20 -230v-283zM755 1473l-100 -208l-188 100l102 204zM702 1304l186 -96l-100 -208l-188 100z" />
    <glyph glyph-name="uni067B" unicode="&#x67b;" horiz-adv-x="1330" arabic-form="isolated" 
d="M1330 293h-839q-121 0 -160.5 4t-85.5 21q-82 28 -135 114t-53 192q0 41 4 73.5t16 76.5q17 65 38 109t74 119l56 -40q-43 -79 -58.5 -125t-15.5 -91q0 -57 36.5 -102.5t95.5 -59.5q35 -9 91.5 -14t118.5 -5h723q-28 76 -46 108q-21 38 -68 97l90 232q75 -107 98 -196
q20 -78 20 -230v-283zM855 123l-100 -208l-188 100l102 204zM802 -46l186 -96l-100 -208l-188 100z" />
    <glyph glyph-name="uni067C.init" unicode="&#x67c;" horiz-adv-x="556" 
d="M540 1362l-110 -204l-142 80l-80 -158l-186 102l104 194l148 -74l84 162zM556 293h-626v272h526q-11 68 -40 115q-15 26 -70 90l80 238q75 -85 102.5 -178t27.5 -276v-261zM377 224q0 -62 -46 -111t-113 -49q-54 0 -81 30t-27 84q0 77 40 136.5t99 59.5q54 0 91 -45
t37 -105zM317 197q0 28 -39 62t-66 34q-26 0 -44 -22.5t-18 -46.5q0 -35 33 -49q26 -11 75 -11q25 0 42 7t17 26z" />
    <glyph glyph-name="uni067D.init" unicode="&#x67d;" horiz-adv-x="556" 
d="M556 293h-626v272h526q-11 68 -40 115q-15 26 -70 90l80 238q75 -85 102.5 -178t27.5 -276v-261zM518 1593l-104 -194l-148 74l-84 -162l-182 102l110 204l142 -80l80 158zM482 1284l-102 -204l-186 96l100 208z" />
    <glyph glyph-name="uni067E" unicode="&#x67e;" horiz-adv-x="1330" arabic-form="isolated" 
d="M1330 293h-839q-121 0 -160.5 4t-85.5 21q-82 28 -135 114t-53 192q0 41 4 73.5t16 76.5q17 65 38 109t74 119l56 -40q-43 -79 -58.5 -125t-15.5 -91q0 -57 36.5 -102.5t95.5 -59.5q35 -9 91.5 -14t118.5 -5h723q-28 76 -46 108q-21 38 -68 97l90 232q75 -107 98 -196
q20 -78 20 -230v-283zM984 117l-104 -194l-148 74l-84 -162l-182 102l110 204l142 -80l80 158zM948 -192l-102 -204l-186 96l100 208z" />
    <glyph glyph-name="uni067F" unicode="&#x67f;" horiz-adv-x="1330" arabic-form="isolated" 
d="M1330 293h-839q-121 0 -160.5 4t-85.5 21q-82 28 -135 114t-53 192q0 41 4 73.5t16 76.5q17 65 38 109t74 119l56 -40q-43 -79 -58.5 -125t-15.5 -91q0 -57 36.5 -102.5t95.5 -59.5q35 -9 91.5 -14t118.5 -5h723q-28 76 -46 108q-21 38 -68 97l90 232q75 -107 98 -196
q20 -78 20 -230v-283zM872 1501l-104 -194l-148 74l-84 -162l-182 102l110 204l142 -80l80 158zM597 1260l142 -80l80 158l186 -102l-104 -194l-148 74l-84 -162l-182 102z" />
    <glyph glyph-name="uni0680" unicode="&#x680;" horiz-adv-x="1330" arabic-form="isolated" 
d="M1330 293h-839q-121 0 -160.5 4t-85.5 21q-82 28 -135 114t-53 192q0 41 4 73.5t16 76.5q17 65 38 109t74 119l56 -40q-43 -79 -58.5 -125t-15.5 -91q0 -57 36.5 -102.5t95.5 -59.5q35 -9 91.5 -14t118.5 -5h723q-28 76 -46 108q-21 38 -68 97l90 232q75 -107 98 -196
q20 -78 20 -230v-283zM932 117l-104 -194l-148 74l-84 -162l-182 102l110 204l142 -80l80 158zM657 -124l142 -80l80 158l186 -102l-104 -194l-148 74l-84 -162l-182 102z" />
    <glyph glyph-name="uni0681.init" unicode="&#x681;" horiz-adv-x="1072" 
d="M1072 293h-1142v272h711q-121 125 -224 180q-91 49 -178 49q-26 0 -47.5 -2.5t-62.5 -11.5q55 126 122.5 186t153.5 60q66 0 127 -32t137 -103q60 -56 170 -175q75 -84 114.5 -109t118.5 -42v-272zM630 1283q-11 -29 -26 -44q-11 -11 -34 -18l-216 -66q20 36 35 49.5
t54 24.5q-28 18 -40.5 33.5t-12.5 30.5q0 13 8 29.5t21 32.5q65 87 129 87q19 0 30.5 -12.5t11.5 -32.5q0 -16 -4.5 -27.5t-18.5 -34.5q-50 25 -68 25t-36 -9q-12 -6 -22 -16q0 -13 48 -40t69 -27q13 0 72 15z" />
    <glyph glyph-name="uni0681.fina" unicode="&#x681;" horiz-adv-x="1144" 
d="M1144 293h-156q-176 0 -240 51t-64 192q0 63 8 121q3 20 16 95q-228 -53 -368 -183q-144 -134 -144 -305q0 -200 171.5 -308t494.5 -108q95 0 272 18l18 -32l-380 -244l-96 -2q-293 0 -451.5 148.5t-158.5 423.5q0 209 95.5 387.5t244.5 258.5h-22q-93 0 -153.5 -17.5
t-182.5 -80.5q45 372 364 372q37 0 141 -11.5t185 -17.5q152 -11 298 -11l-60 -242q-59 0 -101 -7q-56 -12 -101 -21q-3 -19 -5.5 -43t-2.5 -37q0 -71 47 -98t174 -27h157v-272zM770 1343q-11 -29 -26 -44q-11 -11 -34 -18l-216 -66q20 36 35 49.5t54 24.5
q-28 18 -40.5 33.5t-12.5 30.5q0 13 8 29.5t21 32.5q65 87 129 87q19 0 30.5 -12.5t11.5 -32.5q0 -16 -4.5 -27.5t-18.5 -34.5q-50 25 -68 25t-36 -9q-12 -6 -22 -16q0 -13 48 -40t69 -27q13 0 72 15z" />
    <glyph glyph-name="uni0682.init" unicode="&#x682;" horiz-adv-x="1072" 
d="M1072 293h-1142v272h711q-121 125 -224 180q-91 49 -178 49q-26 0 -47.5 -2.5t-62.5 -11.5q55 126 122.5 186t153.5 60q66 0 127 -32t137 -103q60 -56 170 -175q75 -84 114.5 -109t118.5 -42v-272zM565 1607l-100 -208l-188 100l102 204zM512 1438l186 -96l-100 -208
l-188 100z" />
    <glyph glyph-name="uni0682.fina" unicode="&#x682;" horiz-adv-x="1144" 
d="M1144 293h-156q-176 0 -240 51t-64 192q0 63 8 121q3 20 16 95q-228 -53 -368 -183q-144 -134 -144 -305q0 -200 171.5 -308t494.5 -108q95 0 272 18l18 -32l-380 -244l-96 -2q-293 0 -451.5 148.5t-158.5 423.5q0 209 95.5 387.5t244.5 258.5h-22q-93 0 -153.5 -17.5
t-182.5 -80.5q45 372 364 372q37 0 141 -11.5t185 -17.5q152 -11 298 -11l-60 -242q-59 0 -101 -7q-56 -12 -101 -21q-3 -19 -5.5 -43t-2.5 -37q0 -71 47 -98t174 -27h157v-272zM615 1652l-100 -208l-188 100l102 204zM562 1483l186 -96l-100 -208l-188 100z" />
    <glyph glyph-name="uni0683" unicode="&#x683;" horiz-adv-x="1182" arabic-form="isolated" 
d="M1152 -178l-386 -238q-356 0 -524 136q-172 140 -172 440q0 207 82 365.5t260 284.5q-119 0 -210 -35q-33 -13 -150 -67q48 372 354 372q46 0 151 -10.5t185 -15.5q152 -10 300 -10l-60 -246q-383 -48 -584.5 -184.5t-201.5 -349.5q0 -200 165.5 -306t476.5 -106
q8 0 151 9q79 5 143 5zM920 417l-104 -194l-148 74l-84 -162l-182 102l110 204l142 -80l80 158z" />
    <glyph glyph-name="uni0684" unicode="&#x684;" horiz-adv-x="1182" arabic-form="isolated" 
d="M1152 -178l-386 -238q-356 0 -524 136q-172 140 -172 440q0 207 82 365.5t260 284.5q-119 0 -210 -35q-33 -13 -150 -67q48 372 354 372q46 0 151 -10.5t185 -15.5q152 -10 300 -10l-60 -246q-383 -48 -584.5 -184.5t-201.5 -349.5q0 -200 165.5 -306t476.5 -106
q8 0 151 9q79 5 143 5zM735 453l-100 -208l-188 100l102 204zM682 284l186 -96l-100 -208l-188 100z" />
    <glyph glyph-name="uni0685.init" unicode="&#x685;" horiz-adv-x="1072" 
d="M1072 293h-1142v272h711q-121 125 -224 180q-91 49 -178 49q-26 0 -47.5 -2.5t-62.5 -11.5q55 126 122.5 186t153.5 60q66 0 127 -32t137 -103q60 -56 170 -175q75 -84 114.5 -109t118.5 -42v-272zM566 1653l-100 -208l-188 100l102 204zM760 1416l-110 -204l-142 80
l-80 -158l-186 102l104 194l148 -74l84 162z" />
    <glyph glyph-name="uni0685.fina" unicode="&#x685;" horiz-adv-x="1144" 
d="M1144 293h-156q-176 0 -240 51t-64 192q0 63 8 121q3 20 16 95q-228 -53 -368 -183q-144 -134 -144 -305q0 -200 171.5 -308t494.5 -108q95 0 272 18l18 -32l-380 -244l-96 -2q-293 0 -451.5 148.5t-158.5 423.5q0 209 95.5 387.5t244.5 258.5h-22q-93 0 -153.5 -17.5
t-182.5 -80.5q45 372 364 372q37 0 141 -11.5t185 -17.5q152 -11 298 -11l-60 -242q-59 0 -101 -7q-56 -12 -101 -21q-3 -19 -5.5 -43t-2.5 -37q0 -71 47 -98t174 -27h157v-272zM686 1698l-100 -208l-188 100l102 204zM880 1461l-110 -204l-142 80l-80 -158l-186 102
l104 194l148 -74l84 162z" />
    <glyph glyph-name="uni0686" unicode="&#x686;" horiz-adv-x="1182" arabic-form="isolated" 
d="M1152 -178l-386 -238q-356 0 -524 136q-172 140 -172 440q0 207 82 365.5t260 284.5q-119 0 -210 -35q-33 -13 -150 -67q48 372 354 372q46 0 151 -10.5t185 -15.5q152 -10 300 -10l-60 -246q-383 -48 -584.5 -184.5t-201.5 -349.5q0 -200 165.5 -306t476.5 -106
q8 0 151 9q79 5 143 5zM886 487l-104 -194l-148 74l-84 -162l-182 102l110 204l142 -80l80 158zM850 178l-102 -204l-186 96l100 208z" />
    <glyph glyph-name="uni0687" unicode="&#x687;" horiz-adv-x="1182" arabic-form="isolated" 
d="M1152 -178l-386 -238q-356 0 -524 136q-172 140 -172 440q0 207 82 365.5t260 284.5q-119 0 -210 -35q-33 -13 -150 -67q48 372 354 372q46 0 151 -10.5t185 -15.5q152 -10 300 -10l-60 -246q-383 -48 -584.5 -184.5t-201.5 -349.5q0 -200 165.5 -306t476.5 -106
q8 0 151 9q79 5 143 5zM892 517l-104 -194l-148 74l-84 -162l-182 102l110 204l142 -80l80 158zM617 276l142 -80l80 158l186 -102l-104 -194l-148 74l-84 -162l-182 102z" />
    <glyph glyph-name="uni0688" unicode="&#x688;" horiz-adv-x="702" arabic-form="isolated" 
d="M702 293h-453q-66 0 -101 28q-43 34 -43 111q0 44 4.5 95t13.5 103l38 2q8 -35 35.5 -51t66.5 -16h344q-23 97 -80 165q-47 63 -131 96l72 312q130 -77 184 -220q50 -121 50 -304v-321zM623 1172h-544v130h64q12 0 64 39q22 16 51 40q0 101 -18 183l-26 104l-28 17
q15 70 46 140l22 -9q-2 -6 -2 -12q0 -17 47 -40q11 -5 47 -19q-5 -39 -15 -70q-5 -14 -19 -50l-17 6q25 -115 25 -157v-6q0 -21 -5 -46q39 29 119 80q40 22 61 22q128 0 128 -124v-228zM557 1350q0 28 -36 39q-21 7 -61 7q-60 0 -185 -94h125q157 0 157 48z" />
    <glyph glyph-name="uni068C" unicode="&#x68c;" horiz-adv-x="702" arabic-form="isolated" 
d="M702 293h-453q-66 0 -101 28q-43 34 -43 111q0 44 4.5 95t13.5 103l38 2q8 -35 35.5 -51t66.5 -16h344q-23 147 -80 235q-47 73 -131 126l72 312q130 -97 184 -250q50 -141 50 -374v-321zM620 1637l-104 -194l-148 74l-84 -162l-182 102l110 204l142 -80l80 158z" />
    <glyph glyph-name="uni068D" unicode="&#x68d;" horiz-adv-x="702" arabic-form="isolated" 
d="M702 293h-453q-66 0 -101 28q-43 34 -43 111q0 44 4.5 95t13.5 103l38 2q8 -35 35.5 -51t66.5 -16h344q-23 147 -80 235q-47 73 -131 126l72 312q130 -97 184 -250q50 -141 50 -374v-321zM680 117l-104 -194l-148 74l-84 -162l-182 102l110 204l142 -80l80 158z" />
    <glyph glyph-name="uni068E" unicode="&#x68e;" horiz-adv-x="702" arabic-form="isolated" 
d="M702 293h-453q-66 0 -101 28q-43 34 -43 111q0 44 4.5 95t13.5 103l38 2q8 -35 35.5 -51t66.5 -16h344q-23 97 -80 165q-47 63 -131 96l72 312q130 -77 184 -220q50 -121 50 -304v-321zM446 1723l-100 -208l-188 100l102 204zM640 1486l-110 -204l-142 80l-80 -158
l-186 102l104 194l148 -74l84 162z" />
    <glyph glyph-name="uni0691" unicode="&#x691;" horiz-adv-x="886" arabic-form="isolated" 
d="M886 270q0 -61 -70 -161.5t-164 -174.5q-104 -82 -178 -82q-88 0 -189 50q-88 43 -275 172l42 62q90 -60 145 -81t119 -21q69 0 138 39t188 145q166 148 166 228q0 40 -32 105q-36 74 -88 123l56 270q68 -70 105 -161t37 -207v-306zM852 1062h-544v130h64q12 0 64 39
q22 16 51 40q0 101 -18 183l-26 104l-28 17q15 70 46 140l22 -9q-2 -6 -2 -12q0 -17 47 -40q11 -5 47 -19q-5 -39 -15 -70q-5 -14 -19 -50l-17 6q25 -115 25 -157v-6q0 -21 -5 -46q39 29 119 80q40 22 61 22q128 0 128 -124v-228zM786 1240q0 28 -36 39q-21 7 -61 7
q-60 0 -185 -94h125q157 0 157 48z" />
    <glyph glyph-name="uni0698" unicode="&#x698;" horiz-adv-x="886" arabic-form="isolated" 
d="M886 270q0 -61 -70 -161.5t-164 -174.5q-104 -82 -178 -82q-88 0 -189 50q-88 43 -275 172l42 62q90 -60 145 -81t119 -21q69 0 138 39t188 145q166 148 166 228q0 40 -32 105q-36 74 -88 123l56 270q68 -70 105 -161t37 -207v-306zM721 1569l-100 -208l-188 100l102 204
zM915 1332l-110 -204l-142 80l-80 -158l-186 102l104 194l148 -74l84 162z" />
    <glyph glyph-name="uni069A.init" unicode="&#x69a;" horiz-adv-x="1246" 
d="M1246 293q-112 0 -186 16t-146 51q-58 -41 -103.5 -54t-136.5 -13h-163q-67 0 -106 35t-70 116q-55 -84 -123 -120q-58 -31 -139 -31h-143v272h143q105 0 175 59q91 77 91 234l66 -10q-2 -32 -4 -73t-2 -91q0 -51 35 -85t80 -34h123q122 0 174 34q63 41 63 153
q0 24 15 43q9 11 37 33l38 30q2 -19 3 -51.5t1 -42.5q0 -55 -16 -146q37 -18 83 -31t97 -20q0 34 -25 88t-25 73q0 26 7 40q2 5 22 31l85 115q27 -63 38.5 -114.5t11.5 -128.5v-378zM855 1175l-120 -224l-234 122l121 226zM1055 95l-120 -224l-234 122l121 226z" />
    <glyph glyph-name="uni069B.init" unicode="&#x69b;" horiz-adv-x="1246" 
d="M1246 293q-112 0 -186 16t-146 51q-58 -41 -103.5 -54t-136.5 -13h-163q-67 0 -106 35t-70 116q-55 -84 -123 -120q-58 -31 -139 -31h-143v272h143q105 0 175 59q91 77 91 234l66 -10q-2 -32 -4 -73t-2 -91q0 -51 35 -85t80 -34h123q122 0 174 34q63 41 63 153
q0 24 15 43q9 11 37 33l38 30q2 -19 3 -51.5t1 -42.5q0 -55 -16 -146q37 -18 83 -31t97 -20q0 34 -25 88t-25 73q0 26 7 40q2 5 22 31l85 115q27 -63 38.5 -114.5t11.5 -128.5v-378zM1135 117l-104 -194l-148 74l-84 -162l-182 102l110 204l142 -80l80 158zM1099 -192
l-102 -204l-186 96l100 208z" />
    <glyph glyph-name="uni069C.init" unicode="&#x69c;" horiz-adv-x="1246" 
d="M936 1489l-100 -208l-188 100l102 204zM1130 1252l-110 -204l-142 80l-87 -158l-179 102l104 194l148 -74l84 162zM1246 293q-112 0 -186 16t-146 51q-58 -41 -103.5 -54t-136.5 -13h-163q-67 0 -106 35t-70 116q-55 -84 -123 -120q-58 -31 -139 -31h-143v272h143
q105 0 175 59q91 77 91 234l66 -10q-2 -32 -4 -73t-2 -91q0 -51 35 -85t80 -34h123q122 0 174 34q63 41 63 153q0 24 15 43q9 11 37 33l38 30q2 -19 3 -51.5t1 -42.5q0 -55 -16 -146q37 -18 83 -31t97 -20q0 34 -25 88t-25 73q0 26 7 40q2 5 22 31l85 115
q27 -63 38.5 -114.5t11.5 -128.5v-378zM1135 117l-104 -194l-148 74l-84 -162l-182 102l110 204l142 -80l80 158zM1099 -192l-102 -204l-186 96l100 208z" />
    <glyph glyph-name="uni069D.init" unicode="&#x69d;" horiz-adv-x="1580" 
d="M1580 293h-1059q-71 0 -113.5 35.5t-72.5 115.5q-64 -89 -122 -121q-53 -29 -140 -29l-143 -1v272l143 1q116 0 176 58q70 68 90 234l68 -10q-3 -36 -4 -58q-4 -66 -4 -106q0 -57 30 -88t79 -31t90.5 20t130.5 83l358 256q63 45 95 64q73 44 141 44q112 0 179 -79
q78 -92 78 -277v-383zM1440 667q0 45 -71 73q-59 23 -132 23q-66 0 -148.5 -42.5t-239.5 -155.5h262q329 0 329 102zM1290 117l-104 -194l-148 74l-84 -162l-182 102l110 204l142 -80l80 158z" />
    <glyph glyph-name="uni069E.init" unicode="&#x69e;" horiz-adv-x="1580" 
d="M1580 293h-1059q-71 0 -113.5 35.5t-72.5 115.5q-64 -89 -122 -121q-53 -29 -140 -29l-143 -1v272l143 1q116 0 176 58q70 68 90 234l68 -10q-3 -36 -4 -58q-4 -66 -4 -106q0 -57 30 -88t79 -31t90.5 20t130.5 83l358 256q63 45 95 64q73 44 141 44q112 0 179 -79
q78 -92 78 -277v-383zM1440 667q0 45 -71 73q-59 23 -132 23q-66 0 -148.5 -42.5t-239.5 -155.5h262q329 0 329 102zM950 1584l-100 -208l-188 100l102 204zM1144 1347l-110 -204l-142 80l-80 -158l-186 102l104 194l148 -74l84 162z" />
    <glyph glyph-name="uni06A0.init" unicode="&#x6a0;" horiz-adv-x="1108" 
d="M990 770l-112 -284q-269 -83 -445 -128q-153 -39 -258 -54q-77 -11 -155 -11h-90v272h108q29 0 43 1q30 4 59 6q-50 75 -67 121.5t-17 104.5q0 149 123.5 260.5t288.5 111.5q111 0 212 -73q93 -68 136 -165l-42 -36q-79 30 -125.5 39t-114.5 9q-124 0 -215 -20
q-115 -25 -115 -72q0 -69 278 -228zM466 1729l-100 -208l-188 100l102 204zM660 1492l-110 -204l-142 80l-80 -158l-186 102l104 194l148 -74l84 162z" />
    <glyph glyph-name="uni06A0.medi" unicode="&#x6a0;" horiz-adv-x="738" 
d="M738 293h-148q-79 0 -139 32t-97 103q-65 -80 -169 -113q-69 -22 -150 -22h-105v272h105q83 0 116.5 8.5t90.5 38.5q-30 59 -52 85q-27 31 -56 31q-11 0 -20.5 -7.5t-21.5 -28.5l-44 6q0 181 62.5 258.5t197.5 77.5q139 0 218.5 -54.5t79.5 -149.5q0 -51 -21 -97.5
t-79 -126.5q14 -19 38 -30t46 -11h148v-272zM376 1649l-100 -208l-188 100l102 204zM570 1412l-110 -204l-142 80l-80 -158l-186 102l104 194l148 -74l84 162z" />
    <glyph glyph-name="uni06A0.fina" unicode="&#x6a0;" horiz-adv-x="960" 
d="M1056 -182l-368 -224q-325 0 -471.5 122.5t-146.5 383.5q0 182 70 329t220 279q-12 74 -54 74q-16 0 -25 -9q-12 -15 -23 -27l-48 10q0 139 62 230q70 102 196 102q112 0 185 -62t73 -160q0 -59 -30 -112q-33 -58 -90 -86q50 -58 122 -85q49 -18 92 -18h140v-272h-140
q-143 0 -229 56q-96 62 -173 221q-112 -74 -173 -169.5t-61 -194.5q0 -177 156.5 -262.5t493.5 -85.5q52 0 110 1t106 3zM516 1703l-100 -208l-188 100l102 204zM710 1466l-110 -204l-142 80l-80 -158l-186 102l104 194l148 -74l84 162z" />
    <glyph glyph-name="uni06A2.init" unicode="&#x6a2;" horiz-adv-x="624" 
d="M624 293h-694v272h600q0 87 -5 124q-8 57 -33 99q-32 -62 -86 -95t-115 -33q-80 0 -135 53t-55 133q0 118 72 280q79 178 160 178q105 0 198 -183t93 -387v-441zM407 966q-27 47 -47.5 65.5t-44.5 18.5q-30 0 -54 -27t-24 -63q0 -23 18.5 -38.5t47.5 -15.5
q23 0 46.5 13.5t57.5 46.5zM515 95l-120 -224l-234 122l121 226z" />
    <glyph glyph-name="uni06A2.medi" unicode="&#x6a2;" horiz-adv-x="664" 
d="M664 293h-734v272h180q46 0 87 -4q110 -12 251 -27q-149 33 -208.5 87.5t-59.5 158.5q0 155 71.5 279.5t160.5 124.5q101 0 176.5 -174.5t75.5 -421.5v-295zM528 708q-36 86 -80 134t-88 48q-20 0 -35 -13t-15 -31q0 -43 64.5 -83.5t153.5 -54.5zM515 95l-120 -224
l-234 122l121 226z" />
    <glyph glyph-name="uni06A3.init" unicode="&#x6a3;" horiz-adv-x="624" 
d="M624 293h-694v272h600q0 87 -5 124q-8 57 -33 99q-32 -62 -86 -95t-115 -33q-80 0 -135 53t-55 133q0 118 72 280q79 178 160 178q105 0 198 -183t93 -387v-441zM407 966q-27 47 -47.5 65.5t-44.5 18.5q-30 0 -54 -27t-24 -63q0 -23 18.5 -38.5t47.5 -15.5
q23 0 46.5 13.5t57.5 46.5zM515 95l-120 -224l-234 122l121 226zM479 1616l-120 -224l-234 122l121 226z" />
    <glyph glyph-name="uni06A3.medi" unicode="&#x6a3;" horiz-adv-x="664" 
d="M664 293h-734v272h180q46 0 87 -4q110 -12 251 -27q-149 33 -208.5 87.5t-59.5 158.5q0 155 71.5 279.5t160.5 124.5q101 0 176.5 -174.5t75.5 -421.5v-295zM528 708q-36 86 -80 134t-88 48q-20 0 -35 -13t-15 -31q0 -43 64.5 -83.5t153.5 -54.5zM515 95l-120 -224
l-234 122l121 226zM566 1482l-120 -224l-234 122l121 226z" />
    <glyph glyph-name="uni06A4" unicode="&#x6a4;" horiz-adv-x="1552" arabic-form="isolated" 
d="M1552 293h-134q-175 0 -397 -8q-134 -5 -348 -15t-230 -10q-213 0 -308 75q-88 70 -88 217q0 114 22 199t102 275l66 -30q-72 -171 -72 -250q0 -103 81 -148q90 -50 311 -50q153 9 298 15.5t278 6.5q-41 20 -56.5 44.5t-15.5 71.5q0 143 87 285q94 153 207 153
q106 0 154 -148q43 -134 43 -411v-272zM1396 692q-35 98 -58 129t-60 31q-19 0 -33.5 -14.5t-14.5 -37.5q0 -31 43 -58t123 -50zM1306 1689l-100 -208l-188 100l102 204zM1500 1452l-110 -204l-142 80l-80 -158l-186 102l104 194l148 -74l84 162z" />
    <glyph glyph-name="uni06A5.init" unicode="&#x6a5;" horiz-adv-x="624" 
d="M624 293h-694v272h600q0 87 -5 124q-8 57 -33 99q-32 -62 -86 -95t-115 -33q-80 0 -135 53t-55 133q0 118 72 280q79 178 160 178q105 0 198 -183t93 -387v-441zM407 966q-27 47 -47.5 65.5t-44.5 18.5q-30 0 -54 -27t-24 -63q0 -23 18.5 -38.5t47.5 -15.5
q23 0 46.5 13.5t57.5 46.5zM575 117l-104 -194l-148 74l-84 -162l-182 102l110 204l142 -80l80 158zM539 -192l-102 -204l-186 96l100 208z" />
    <glyph glyph-name="uni06A5.medi" unicode="&#x6a5;" horiz-adv-x="664" 
d="M664 293h-734v272h180q46 0 87 -4q110 -12 251 -27q-149 33 -208.5 87.5t-59.5 158.5q0 155 71.5 279.5t160.5 124.5q101 0 176.5 -174.5t75.5 -421.5v-295zM528 708q-36 86 -80 134t-88 48q-20 0 -35 -13t-15 -31q0 -43 64.5 -83.5t153.5 -54.5zM591 117l-104 -194
l-148 74l-84 -162l-182 102l110 204l142 -80l80 158zM555 -192l-102 -204l-186 96l100 208z" />
    <glyph glyph-name="uni06A6" unicode="&#x6a6;" horiz-adv-x="1552" arabic-form="isolated" 
d="M1552 293h-134q-175 0 -397 -8q-134 -5 -348 -15t-230 -10q-213 0 -308 75q-88 70 -88 217q0 114 22 199t102 275l66 -30q-72 -171 -72 -250q0 -103 81 -148q90 -50 311 -50q153 9 298 15.5t278 6.5q-41 20 -56.5 44.5t-15.5 71.5q0 143 87 285q94 153 207 153
q106 0 154 -148q43 -134 43 -411v-272zM1396 692q-35 98 -58 129t-60 31q-19 0 -33.5 -14.5t-14.5 -37.5q0 -31 43 -58t123 -50zM1372 1707l-104 -194l-148 74l-84 -162l-182 102l110 204l142 -80l80 158zM1097 1466l142 -80l80 158l186 -102l-104 -194l-148 74l-84 -162
l-182 102z" />
    <glyph glyph-name="uni06A9" unicode="&#x6a9;" horiz-adv-x="1550" arabic-form="isolated" 
d="M437 293q-216 0 -311 74q-85 66 -85 205q0 93 28.5 182.5t97.5 213.5l60 -42q-39 -77 -50.5 -114.5t-11.5 -79.5q0 -96 71 -131.5t271 -35.5h884q-39 47 -76 82q-30 28 -81 68q-57 44 -113 88l-32 -36q-89 88 -106 107q-50 57 -50 131q0 101 14 142q20 58 85 103
q58 40 124 73q52 26 138 61q40 16 169 66v-238q-5 0 -84 -26q-98 -32 -156 -56q-84 -34 -84 -51q0 -9 71 -78q97 -94 163 -172q109 -129 177 -257v-279h-1113z" />
    <glyph glyph-name="uni06AA.init" unicode="&#x6aa;" horiz-adv-x="1856" 
d="M1786 803q0 -272 -219 -369q-153 -68 -629 -109q-371 -32 -658 -32h-350v272h369q731 0 1192 93q134 27 134 86q0 37 -70 37q-80 0 -524 -32q-638 -46 -835 -46q-57 0 -92 31q-31 28 -31 65q0 66 24 159q26 104 61 142q149 162 491 287v-203q-178 -58 -308 -132
q-103 -59 -103 -101q0 -33 99 -33q179 0 666 36q460 34 633 34q76 0 116 -58q34 -49 34 -127z" />
    <glyph glyph-name="uni06AA.medi" unicode="&#x6aa;" horiz-adv-x="1856" 
d="M1856 293h-75q-151 0 -173 162q-19 -11 -41 -21q-153 -68 -629 -109q-371 -32 -658 -32h-350v272h369q731 0 1192 93q134 27 134 86q0 37 -70 37q-80 0 -524 -32q-638 -46 -835 -46q-57 0 -92 32q-31 27 -31 64q0 66 24 159q26 104 61 142q149 162 491 287v-203
q-178 -58 -308 -132q-103 -59 -103 -101q0 -33 99 -33q179 0 666 36q460 34 633 34q76 0 116 -58q34 -49 34 -127q0 -134 -57 -229q21 -9 52 -9h75v-272z" />
    <glyph glyph-name="uni06AA.fina" unicode="&#x6aa;" horiz-adv-x="2366" 
d="M2366 293h-75q-151 0 -173 162q-19 -11 -41 -21q-152 -67 -679 -109q-407 -32 -708 -32q-187 0 -419 23l-221 294l6 12q284 -57 653 -57q831 0 1292 93q134 27 134 86q0 37 -70 37q-80 0 -524 -32q-638 -46 -835 -46q-57 0 -92 31q-31 28 -31 65q0 66 24 159
q26 104 61 142q149 162 491 287v-203q-178 -58 -308 -132q-103 -59 -103 -101q0 -33 99 -33q179 0 666 36q460 34 633 34q76 0 116 -58q34 -49 34 -127q0 -134 -57 -229q21 -9 52 -9h75v-272z" />
    <glyph glyph-name="uni06AB.init" unicode="&#x6ab;" horiz-adv-x="738" 
d="M738 293h-808v272h649q-39 47 -76 82q-30 28 -81 68q-57 44 -113 88l-32 -36q-89 88 -106 107q-50 57 -50 131q0 101 14 142q20 58 85 103q58 40 124 73q52 26 138 61q40 16 169 66v-238q-5 0 -84 -26q-98 -32 -156 -56q-84 -34 -84 -51q0 -9 71 -78q97 -94 163 -172
q109 -129 177 -257v-279zM717 1108q0 -62 -46 -111t-113 -49q-54 0 -81 30t-27 84q0 77 40 136.5t99 59.5q54 0 91 -45t37 -105zM657 1081q0 28 -39 62t-66 34q-26 0 -44 -22.5t-18 -46.5q0 -35 33 -49q26 -11 75 -11q25 0 42 7t17 26z" />
    <glyph glyph-name="uni06AB.medi" unicode="&#x6ab;" horiz-adv-x="1110" 
d="M-70 293v272h170q108 0 163 5q86 8 132 31q54 27 54 80q0 27 -34 67t-75 62l-35 -35q-77 73 -96 94q-56 63 -56 136q0 101 14 142q20 58 85 103q55 38 148 80q75 34 182 75q96 36 193 73v-238l-107 -33q-123 -39 -201 -69q-108 -42 -108 -59q-1 -15 -1 -21q0 -23 21 -47
q28 -32 117 -102q65 -52 182 -163q99 -95 148 -129q74 -52 140 -52h144v-272h-136q-75 0 -167 65q-75 53 -154 140q-42 46 -110 134q0 -167 -110 -250q-118 -89 -377 -89h-126zM787 1118q0 -62 -46 -111t-113 -49q-54 0 -81 30t-27 84q0 77 40 136.5t99 59.5q54 0 91 -45
t37 -105zM727 1091q0 28 -39 62t-66 34q-26 0 -44 -22.5t-18 -46.5q0 -35 33 -49q26 -11 75 -11q25 0 42 7t17 26z" />
    <glyph glyph-name="uni06AB.fina" unicode="&#x6ab;" horiz-adv-x="1800" 
d="M790 565q108 0 163 5q86 8 132 31q54 27 54 80q0 27 -34 67t-75 62l-35 -35q-77 73 -96 94q-56 63 -56 136q0 101 14 142q20 58 85 103q55 38 148 80q75 34 182 75q96 36 193 73v-238l-107 -33q-123 -39 -201 -69q-108 -42 -108 -59q-1 -15 -1 -21q0 -23 21 -47
q28 -32 117 -102q65 -52 182 -163q99 -95 148 -129q74 -52 140 -52h144v-272h-136q-75 0 -167 65q-75 53 -154 140q-42 46 -110 134q0 -167 -110 -250q-118 -89 -377 -89h-309q-216 0 -311 74q-85 66 -85 205q0 93 28.5 182.5t97.5 213.5l60 -42q-39 -77 -50.5 -114.5
t-11.5 -79.5q0 -96 71 -131.5t271 -35.5h283zM1477 1118q0 -62 -46 -111t-113 -49q-54 0 -81 30t-27 84q0 77 40 136.5t99 59.5q54 0 91 -45t37 -105zM1417 1091q0 28 -39 62t-66 34q-26 0 -44 -22.5t-18 -46.5q0 -35 33 -49q26 -11 75 -11q25 0 42 7t17 26z" />
    <glyph glyph-name="uni06AC.init" unicode="&#x6ac;" horiz-adv-x="738" 
d="M738 293h-808v272h649q-39 47 -76 82q-30 28 -81 68q-57 44 -113 88l-32 -36q-89 88 -106 107q-50 57 -50 131q0 101 14 142q20 58 85 103q58 40 124 73q52 26 138 61q40 16 169 66v-238q-5 0 -84 -26q-98 -32 -156 -56q-84 -34 -84 -51q0 -9 71 -78q97 -94 163 -172
q109 -129 177 -257v-279zM495 1675l-120 -224l-234 122l121 226z" />
    <glyph glyph-name="uni06AD" unicode="&#x6ad;" horiz-adv-x="1108" arabic-form="isolated" 
d="M765 1038q0 -133 -78.5 -207.5t-219.5 -74.5q-39 0 -62.5 2t-77.5 12l12 64h18q99 0 182.5 27.5t83.5 64.5q0 14 -10 19.5t-40 8.5q-96 0 -96 84q0 60 23.5 133.5t66.5 148.5q28 46 57 68t87 40q-2 -39 -3 -85t-1 -81q-54 -15 -90 -42q-32 -24 -32 -42q0 -21 68 -30
q62 0 87 -25t25 -85zM1108 293h-671q-216 0 -311 74q-85 66 -85 205q0 93 28.5 182.5t97.5 213.5l60 -42q-39 -77 -50.5 -114.5t-11.5 -79.5q0 -96 71 -131.5t271 -35.5h481l-121 679l-64 42q0 59 18 119q23 76 78 181l46 -24q0 -6 -4 -32q0 -33 42 -64q37 -28 118 -62
q-9 -64 -26.5 -125t-39.5 -109l-36 14l109 -619v-272zM588 1724l-57 -96l-130 36l54 96zM763 1675l-57 -96l-130 36l54 96zM546 1587l-57 -96l-130 36l54 96z" />
    <glyph glyph-name="uni06AE.init" unicode="&#x6ae;" horiz-adv-x="738" 
d="M738 293h-808v272h649q-39 47 -76 82q-30 28 -81 68q-57 44 -113 88l-32 -36q-89 88 -106 107q-50 57 -50 131q0 101 14 142q20 58 85 103q58 40 124 73q52 26 138 61q40 16 169 66v-238q-5 0 -84 -26q-98 -32 -156 -56q-84 -34 -84 -51q0 -9 71 -78q97 -94 163 -172
q109 -129 177 -257v-279zM628 117l-104 -194l-148 74l-84 -162l-182 102l110 204l142 -80l80 158zM592 -192l-102 -204l-186 96l100 208z" />
    <glyph glyph-name="uni06AF" unicode="&#x6af;" horiz-adv-x="1550" arabic-form="isolated" 
d="M437 293q-216 0 -311 74q-85 66 -85 205q0 93 28.5 182.5t97.5 213.5l60 -42q-39 -77 -50.5 -114.5t-11.5 -79.5q0 -96 71 -131.5t271 -35.5h884q-39 47 -76 82q-30 28 -81 68q-57 44 -113 88l-32 -36q-89 88 -106 107q-50 57 -50 131q0 101 14 142q20 58 85 103
q58 40 124 73q52 26 138 61q40 16 169 66v-238q-5 0 -84 -26q-98 -32 -156 -56q-84 -34 -84 -51q0 -9 71 -78q97 -94 163 -172q109 -129 177 -257v-279h-1113zM1463 1767v-223q-215 -79 -372 -153q-144 -68 -229 -125v154q34 34 119 92q99 67 210 127q137 74 272 128z" />
    <glyph glyph-name="uni06B0.init" unicode="&#x6b0;" horiz-adv-x="738" 
d="M738 293h-808v272h649q-39 47 -76 82q-30 28 -81 68q-57 44 -113 88l-32 -36q-89 88 -106 107q-50 57 -50 131q0 101 14 142q20 58 85 103q58 40 124 73q52 26 138 61q40 16 169 66v-238q-5 0 -84 -26q-98 -32 -156 -56q-84 -34 -84 -51q0 -9 71 -78q97 -94 163 -172
q109 -129 177 -257v-279zM651 1767v-223q-215 -79 -372 -153q-144 -68 -229 -125v154q34 34 119 92q99 67 210 127q137 74 272 128zM717 1108q0 -62 -46 -111t-113 -49q-54 0 -81 30t-27 84q0 77 40 136.5t99 59.5q54 0 91 -45t37 -105zM657 1081q0 28 -39 62t-66 34
q-26 0 -44 -22.5t-18 -46.5q0 -35 33 -49q26 -11 75 -11q25 0 42 7t17 26z" />
    <glyph glyph-name="uni06B0.medi" unicode="&#x6b0;" horiz-adv-x="1110" 
d="M-70 293v272h170q108 0 163 5q86 8 132 31q54 27 54 80q0 27 -34 67t-75 62l-35 -35q-77 73 -96 94q-56 63 -56 136q0 101 14 142q20 58 85 103q55 38 148 80q75 34 182 75q96 36 193 73v-238l-107 -33q-123 -39 -201 -69q-108 -42 -108 -59q-1 -15 -1 -21q0 -23 21 -47
q28 -32 117 -102q65 -52 182 -163q99 -95 148 -129q74 -52 140 -52h144v-272h-136q-75 0 -167 65q-75 53 -154 140q-42 46 -110 134q0 -167 -110 -250q-118 -89 -377 -89h-126zM775 1795v-223q-215 -79 -372 -153q-144 -68 -229 -125v154q34 34 119 92q99 67 210 127
q137 74 272 128zM787 1118q0 -62 -46 -111t-113 -49q-54 0 -81 30t-27 84q0 77 40 136.5t99 59.5q54 0 91 -45t37 -105zM727 1091q0 28 -39 62t-66 34q-26 0 -44 -22.5t-18 -46.5q0 -35 33 -49q26 -11 75 -11q25 0 42 7t17 26z" />
    <glyph glyph-name="uni06B0.fina" unicode="&#x6b0;" horiz-adv-x="1800" 
d="M790 565q108 0 163 5q86 8 132 31q54 27 54 80q0 27 -34 67t-75 62l-35 -35q-77 73 -96 94q-56 63 -56 136q0 101 14 142q20 58 85 103q55 38 148 80q75 34 182 75q96 36 193 73v-238l-107 -33q-123 -39 -201 -69q-108 -42 -108 -59q-1 -15 -1 -21q0 -23 21 -47
q28 -32 117 -102q65 -52 182 -163q99 -95 148 -129q74 -52 140 -52h144v-272h-136q-75 0 -167 65q-75 53 -154 140q-42 46 -110 134q0 -167 -110 -250q-118 -89 -377 -89h-309q-216 0 -311 74q-85 66 -85 205q0 93 28.5 182.5t97.5 213.5l60 -42q-39 -77 -50.5 -114.5
t-11.5 -79.5q0 -96 71 -131.5t271 -35.5h283zM1465 1795v-223q-215 -79 -372 -153q-144 -68 -229 -125v154q34 34 119 92q99 67 210 127q137 74 272 128zM1477 1118q0 -62 -46 -111t-113 -49q-54 0 -81 30t-27 84q0 77 40 136.5t99 59.5q54 0 91 -45t37 -105zM1417 1091
q0 28 -39 62t-66 34q-26 0 -44 -22.5t-18 -46.5q0 -35 33 -49q26 -11 75 -11q25 0 42 7t17 26z" />
    <glyph glyph-name="uni06B1" unicode="&#x6b1;" horiz-adv-x="1550" arabic-form="isolated" 
d="M437 293q-216 0 -311 74q-85 66 -85 205q0 93 28.5 182.5t97.5 213.5l60 -42q-39 -77 -50.5 -114.5t-11.5 -79.5q0 -96 71 -131.5t271 -35.5h884q-39 47 -76 82q-30 28 -81 68q-57 44 -113 88l-32 -36q-89 88 -106 107q-50 57 -50 131q0 101 14 142q20 58 85 103
q58 40 124 73q52 26 138 61q40 16 169 66v-238q-5 0 -84 -26q-98 -32 -156 -56q-84 -34 -84 -51q0 -9 71 -78q97 -94 163 -172q109 -129 177 -257v-279h-1113zM1463 1767v-223q-215 -79 -372 -153q-144 -68 -229 -125v154q34 34 119 92q99 67 210 127q137 74 272 128z
M1274 1781l-54 -105l-144 44l56 105zM1065 1690l-54 -105l-144 44l56 105z" />
    <glyph glyph-name="uni06B2.init" unicode="&#x6b2;" horiz-adv-x="738" 
d="M738 293h-808v272h649q-39 47 -76 82q-30 28 -81 68q-57 44 -113 88l-32 -36q-89 88 -106 107q-50 57 -50 131q0 101 14 142q20 58 85 103q58 40 124 73q52 26 138 61q40 16 169 66v-238q-5 0 -84 -26q-98 -32 -156 -56q-84 -34 -84 -51q0 -9 71 -78q97 -94 163 -172
q109 -129 177 -257v-279zM651 1767v-223q-215 -79 -372 -153q-144 -68 -229 -125v154q34 34 119 92q99 67 210 127q137 74 272 128zM628 117l-104 -194l-148 74l-84 -162l-182 102l110 204l142 -80l80 158z" />
    <glyph glyph-name="uni06B2.medi" unicode="&#x6b2;" horiz-adv-x="1110" 
d="M-70 293v272h170q108 0 163 5q86 8 132 31q54 27 54 80q0 27 -34 67t-75 62l-35 -35q-77 73 -96 94q-56 63 -56 136q0 101 14 142q20 58 85 103q55 38 148 80q75 34 182 75q96 36 193 73v-238l-107 -33q-123 -39 -201 -69q-108 -42 -108 -59q-1 -15 -1 -21q0 -23 21 -47
q28 -32 117 -102q65 -52 182 -163q99 -95 148 -129q74 -52 140 -52h144v-272h-136q-75 0 -167 65q-75 53 -154 140q-42 46 -110 134q0 -167 -110 -250q-118 -89 -377 -89h-126zM775 1795v-223q-215 -79 -372 -153q-144 -68 -229 -125v154q34 34 119 92q99 67 210 127
q137 74 272 128zM560 117l-104 -194l-148 74l-84 -162l-182 102l110 204l142 -80l80 158z" />
    <glyph glyph-name="uni06B2.fina" unicode="&#x6b2;" horiz-adv-x="1800" 
d="M790 565q108 0 163 5q86 8 132 31q54 27 54 80q0 27 -34 67t-75 62l-35 -35q-77 73 -96 94q-56 63 -56 136q0 101 14 142q20 58 85 103q55 38 148 80q75 34 182 75q96 36 193 73v-238l-107 -33q-123 -39 -201 -69q-108 -42 -108 -59q-1 -15 -1 -21q0 -23 21 -47
q28 -32 117 -102q65 -52 182 -163q99 -95 148 -129q74 -52 140 -52h144v-272h-136q-75 0 -167 65q-75 53 -154 140q-42 46 -110 134q0 -167 -110 -250q-118 -89 -377 -89h-309q-216 0 -311 74q-85 66 -85 205q0 93 28.5 182.5t97.5 213.5l60 -42q-39 -77 -50.5 -114.5
t-11.5 -79.5q0 -96 71 -131.5t271 -35.5h283zM1465 1795v-223q-215 -79 -372 -153q-144 -68 -229 -125v154q34 34 119 92q99 67 210 127q137 74 272 128zM880 117l-104 -194l-148 74l-84 -162l-182 102l110 204l142 -80l80 158z" />
    <glyph glyph-name="uni06B3" unicode="&#x6b3;" horiz-adv-x="1550" arabic-form="isolated" 
d="M437 293q-216 0 -311 74q-85 66 -85 205q0 93 28.5 182.5t97.5 213.5l60 -42q-39 -77 -50.5 -114.5t-11.5 -79.5q0 -96 71 -131.5t271 -35.5h884q-39 47 -76 82q-30 28 -81 68q-57 44 -113 88l-32 -36q-89 88 -106 107q-50 57 -50 131q0 101 14 142q20 58 85 103
q58 40 124 73q52 26 138 61q40 16 169 66v-238q-5 0 -84 -26q-98 -32 -156 -56q-84 -34 -84 -51q0 -9 71 -78q97 -94 163 -172q109 -129 177 -257v-279h-1113zM1463 1767v-223q-215 -79 -372 -153q-144 -68 -229 -125v154q34 34 119 92q99 67 210 127q137 74 272 128z
M905 123l-100 -208l-188 100l102 204zM852 -46l186 -96l-100 -208l-188 100z" />
    <glyph glyph-name="uni06B4.init" unicode="&#x6b4;" horiz-adv-x="738" 
d="M738 293h-808v272h649q-39 47 -76 82q-30 28 -81 68q-57 44 -113 88l-32 -36q-89 88 -106 107q-50 57 -50 131q0 101 14 142q20 58 85 103q58 40 124 73q52 26 138 61q40 16 169 66v-238q-5 0 -84 -26q-98 -32 -156 -56q-84 -34 -84 -51q0 -9 71 -78q97 -94 163 -172
q109 -129 177 -257v-279zM651 1767v-223q-215 -79 -372 -153q-144 -68 -229 -125v154q34 34 119 92q99 67 210 127q137 74 272 128zM258 1789l-57 -96l-130 36l54 96zM433 1740l-57 -96l-130 36l54 96zM216 1652l-57 -96l-130 36l54 96z" />
    <glyph glyph-name="uni06B4.medi" unicode="&#x6b4;" horiz-adv-x="1110" 
d="M-70 293v272h170q108 0 163 5q86 8 132 31q54 27 54 80q0 27 -34 67t-75 62l-35 -35q-77 73 -96 94q-56 63 -56 136q0 101 14 142q20 58 85 103q55 38 148 80q75 34 182 75q96 36 193 73v-238l-107 -33q-123 -39 -201 -69q-108 -42 -108 -59q-1 -15 -1 -21q0 -23 21 -47
q28 -32 117 -102q65 -52 182 -163q99 -95 148 -129q74 -52 140 -52h144v-272h-136q-75 0 -167 65q-75 53 -154 140q-42 46 -110 134q0 -167 -110 -250q-118 -89 -377 -89h-126zM775 1795v-223q-215 -79 -372 -153q-144 -68 -229 -125v154q34 34 119 92q99 67 210 127
q137 74 272 128zM318 1789l-57 -96l-130 36l54 96zM493 1740l-57 -96l-130 36l54 96zM276 1652l-57 -96l-130 36l54 96z" />
    <glyph glyph-name="uni06B4.fina" unicode="&#x6b4;" horiz-adv-x="1800" 
d="M790 565q108 0 163 5q86 8 132 31q54 27 54 80q0 27 -34 67t-75 62l-35 -35q-77 73 -96 94q-56 63 -56 136q0 101 14 142q20 58 85 103q55 38 148 80q75 34 182 75q96 36 193 73v-238l-107 -33q-123 -39 -201 -69q-108 -42 -108 -59q-1 -15 -1 -21q0 -23 21 -47
q28 -32 117 -102q65 -52 182 -163q99 -95 148 -129q74 -52 140 -52h144v-272h-136q-75 0 -167 65q-75 53 -154 140q-42 46 -110 134q0 -167 -110 -250q-118 -89 -377 -89h-309q-216 0 -311 74q-85 66 -85 205q0 93 28.5 182.5t97.5 213.5l60 -42q-39 -77 -50.5 -114.5
t-11.5 -79.5q0 -96 71 -131.5t271 -35.5h283zM1465 1795v-223q-215 -79 -372 -153q-144 -68 -229 -125v154q34 34 119 92q99 67 210 127q137 74 272 128zM1028 1789l-57 -96l-130 36l54 96zM1203 1740l-57 -96l-130 36l54 96zM986 1652l-57 -96l-130 36l54 96z" />
    <glyph glyph-name="uni06B5.init" unicode="&#x6b5;" horiz-adv-x="480" 
d="M480 293h-550v272h430l-121 679l-64 42q0 59 18 119q23 76 78 181l46 -24q0 -6 -4 -32q0 -33 42 -64q37 -28 118 -62q-9 -64 -26.5 -125t-39.5 -109l-36 14l109 -619v-272zM392 1825l-136 -230h-96l-136 230h117l67 -120l67 120h117z" />
    <glyph glyph-name="uni06B5.medi" unicode="&#x6b5;" horiz-adv-x="480" 
d="M480 293h-550v272h430l-121 679l-64 42q0 59 18 119q23 76 78 181l46 -24q0 -6 -4 -32q0 -33 42 -64q37 -28 118 -62q-9 -64 -26.5 -125t-39.5 -109l-36 14l109 -619v-272zM392 1825l-136 -230h-96l-136 230h117l67 -120l67 120h117z" />
    <glyph glyph-name="uni06B6.init" unicode="&#x6b6;" horiz-adv-x="480" 
d="M480 293h-550v272h430l-121 679l-64 42q0 59 18 119q23 76 78 181l46 -24q0 -6 -4 -32q0 -33 42 -64q37 -28 118 -62q-9 -64 -26.5 -125t-39.5 -109l-36 14l109 -619v-272zM275 1701l-120 -224l-234 122l121 226z" />
    <glyph glyph-name="uni06B6.medi" unicode="&#x6b6;" horiz-adv-x="480" 
d="M480 293h-550v272h430l-121 679l-64 42q0 59 18 119q23 76 78 181l46 -24q0 -6 -4 -32q0 -33 42 -64q37 -28 118 -62q-9 -64 -26.5 -125t-39.5 -109l-36 14l109 -619v-272zM275 1701l-120 -224l-234 122l121 226z" />
    <glyph glyph-name="uni06B7.init" unicode="&#x6b7;" horiz-adv-x="480" 
d="M480 293h-550v272h430l-121 679l-64 42q0 59 18 119q23 76 78 181l46 -24q0 -6 -4 -32q0 -33 42 -64q37 -28 118 -62q-9 -64 -26.5 -125t-39.5 -109l-36 14l109 -619v-272zM228 1789l-57 -96l-130 36l54 96zM403 1740l-57 -96l-130 36l54 96zM186 1652l-57 -96l-130 36
l54 96z" />
    <glyph glyph-name="uni06B7.medi" unicode="&#x6b7;" horiz-adv-x="480" 
d="M480 293h-550v272h430l-121 679l-64 42q0 59 18 119q23 76 78 181l46 -24q0 -6 -4 -32q0 -33 42 -64q37 -28 118 -62q-9 -64 -26.5 -125t-39.5 -109l-36 14l109 -619v-272zM228 1789l-57 -96l-130 36l54 96zM403 1740l-57 -96l-130 36l54 96zM186 1652l-57 -96l-130 36
l54 96z" />
    <glyph glyph-name="uni06B8.init" unicode="&#x6b8;" horiz-adv-x="480" 
d="M480 293h-550v272h430l-121 679l-64 42q0 59 18 119q23 76 78 181l46 -24q0 -6 -4 -32q0 -33 42 -64q37 -28 118 -62q-9 -64 -26.5 -125t-39.5 -109l-36 14l109 -619v-272zM495 117l-104 -194l-148 74l-84 -162l-182 102l110 204l142 -80l80 158zM459 -192l-102 -204
l-186 96l100 208z" />
    <glyph glyph-name="uni06B8.medi" unicode="&#x6b8;" horiz-adv-x="480" 
d="M480 293h-550v272h430l-121 679l-64 42q0 59 18 119q23 76 78 181l46 -24q0 -6 -4 -32q0 -33 42 -64q37 -28 118 -62q-9 -64 -26.5 -125t-39.5 -109l-36 14l109 -619v-272zM495 117l-104 -194l-148 74l-84 -162l-182 102l110 204l142 -80l80 158zM459 -192l-102 -204
l-186 96l100 208z" />
    <glyph glyph-name="uni06B9.init" unicode="&#x6b9;" horiz-adv-x="556" 
d="M562 1382l-120 -224l-234 122l121 226zM556 293h-626v272h526q-11 68 -40 115q-15 26 -70 90l80 238q75 -85 102.5 -178t27.5 -276v-261zM455 95l-120 -224l-234 122l121 226z" />
    <glyph glyph-name="uni06BA" unicode="&#x6ba;" horiz-adv-x="1108" arabic-form="isolated" 
d="M1108 342q0 -138 -27 -221.5t-88.5 -134.5t-180 -83.5t-244.5 -32.5q-243 0 -374.5 88.5t-131.5 251.5q0 139 42 254q46 127 180 330l60 -42q-99 -169 -129.5 -245t-30.5 -157q0 -105 112.5 -171.5t295.5 -66.5q180 0 303 69t123 169q0 62 -21.5 123t-92.5 195l88 270
q70 -127 86 -175q30 -87 30 -221v-200z" />
    <glyph glyph-name="uni06BB" unicode="&#x6bb;" horiz-adv-x="1108" arabic-form="isolated" 
d="M1108 342q0 -138 -27 -221.5t-88.5 -134.5t-180 -83.5t-244.5 -32.5q-243 0 -374.5 88.5t-131.5 251.5q0 139 42 254q46 127 180 330l60 -42q-99 -169 -129.5 -245t-30.5 -157q0 -105 112.5 -171.5t295.5 -66.5q180 0 303 69t123 169q0 62 -21.5 123t-92.5 195l88 270
q70 -127 86 -175q30 -87 30 -221v-200zM872 982h-544v130h64q12 0 64 39q22 16 51 40q0 101 -18 183l-26 104l-28 17q15 70 46 140l22 -9q-2 -6 -2 -12q0 -17 47 -40q11 -5 47 -19q-5 -39 -15 -70q-5 -14 -19 -50l-17 6q25 -115 25 -157v-6q0 -21 -5 -46q39 29 119 80
q40 22 61 22q128 0 128 -124v-228zM806 1160q0 28 -36 39q-21 7 -61 7q-60 0 -185 -94h125q157 0 157 48z" />
    <glyph glyph-name="uni06BC.init" unicode="&#x6bc;" horiz-adv-x="556" 
d="M562 1382l-120 -224l-234 122l121 226zM556 293h-626v272h526q-11 68 -40 115q-15 26 -70 90l80 238q75 -85 102.5 -178t27.5 -276v-261zM411 224q0 -62 -46 -111t-113 -49q-54 0 -81 30t-27 84q0 77 40 136.5t99 59.5q54 0 91 -45t37 -105zM351 197q0 28 -39 62t-66 34
q-26 0 -44 -22.5t-18 -46.5q0 -35 33 -49q26 -11 75 -11q25 0 42 7t17 26z" />
    <glyph glyph-name="uni06BE" unicode="&#x647;" horiz-adv-x="960" arabic-form="initial" 
d="M816 506q0 -73 -29 -160q-35 -106 -83 -106q-42 0 -139 40q-112 46 -233 122q-67 -59 -161 -87q-74 -22 -151 -22h-90v272h90q30 0 64.5 9t53.5 22v36q0 121 34 211q38 101 112 147l-48 36q12 81 22.5 127t37.5 131q150 -105 275 -256q115 -139 180 -279.5t65 -242.5z
M422 738q0 51 -14.5 79.5t-41.5 28.5q-45 0 -76 -33q-26 -28 -26 -57q0 -40 92 -82q22 10 33 17q33 22 33 47zM698 552q0 30 -43.5 91.5t-106.5 120.5q-6 -48 -14.5 -73t-39.5 -83q131 -72 186 -72q18 0 18 16z" />
    <glyph glyph-name="uni06BF.init" unicode="&#x6bf;" horiz-adv-x="1072" 
d="M1072 293h-1142v272h711q-121 125 -224 180q-91 49 -178 49q-26 0 -47.5 -2.5t-62.5 -11.5q55 126 122.5 186t153.5 60q66 0 127 -32t137 -103q60 -56 170 -175q75 -84 114.5 -109t118.5 -42v-272zM765 117l-104 -194l-148 74l-84 -162l-182 102l110 204l142 -80l80 158z
M729 -192l-102 -204l-186 96l100 208zM675 1358l-120 -224l-234 122l121 226z" />
    <glyph glyph-name="uni06BF.fina" unicode="&#x6bf;" horiz-adv-x="1144" 
d="M1144 293h-156q-176 0 -240 51t-64 192q0 63 8 121q3 20 16 95q-228 -53 -368 -183q-144 -134 -144 -305q0 -200 171.5 -308t494.5 -108q95 0 272 18l18 -32l-380 -244l-96 -2q-293 0 -451.5 148.5t-158.5 423.5q0 209 95.5 387.5t244.5 258.5h-22q-93 0 -153.5 -17.5
t-182.5 -80.5q45 372 364 372q37 0 141 -11.5t185 -17.5q152 -11 298 -11l-60 -242q-59 0 -101 -7q-56 -12 -101 -21q-3 -19 -5.5 -43t-2.5 -37q0 -71 47 -98t174 -27h157v-272zM686 381l-88 -165l-126 63l-72 -138l-154 87l93 173l121 -68l68 135zM655 118l-86 -173
l-158 82l85 176zM712 1403l-120 -224l-234 122l121 226z" />
    <glyph glyph-name="uni06C0" unicode="&#x6c0;" horiz-adv-x="702" arabic-form="isolated" 
d="M622 668q0 -60 -9.5 -121.5t-24.5 -100.5q-28 -76 -138 -134q-102 -54 -192 -54q-78 0 -124 54t-46 144q0 82 23.5 161t84.5 199l-36 24q17 46 46 111.5t52 110.5l98 -58q64 -39 122 -84q82 -62 113 -116.5t31 -135.5zM474 588q0 19 -69.5 79t-136.5 103
q-64 -101 -64 -168q0 -32 26.5 -55t63.5 -23q50 0 115 23.5t65 40.5zM430 1263q-11 -29 -26 -44q-11 -11 -34 -18l-216 -66q20 36 35 49.5t54 24.5q-28 18 -40.5 33.5t-12.5 30.5q0 13 8 29.5t21 32.5q65 87 129 87q19 0 30.5 -12.5t11.5 -32.5q0 -16 -4.5 -27.5
t-18.5 -34.5q-50 25 -68 25t-36 -9q-12 -6 -22 -16q0 -13 48 -40t69 -27q13 0 72 15z" />
    <glyph glyph-name="uni06C1.fina" unicode="&#x6c1;" horiz-adv-x="794" arabic-form="final" 
d="M794 293h-72q-71 0 -125 35q-40 24 -98 89q-28 31 -55 61q-37 35 -71 35q-78 0 -174 -152q-34 -54 -116 -222l-57 35q239 597 408 597q57 0 141 -97q94 -109 159 -109h60v-272z" />
    <glyph glyph-name="uni06C5" unicode="&#x6c5;" horiz-adv-x="924" arabic-form="isolated" 
d="M924 362q0 -160 -136 -330q-142 -178 -298 -178q-103 0 -257 97q-62 39 -227 165l42 58q108 -72 177 -96q57 -20 129 -20q140 0 281 114q-28 -6 -59 -6q-68 0 -145 33q-56 26 -85 26q-14 0 -58 -14l-14 14q46 77 106 77q36 0 99 -26q80 -33 145 -33q48 0 110 25
q19 21 44 50q-42 -6 -70 -6q-103 0 -161 70q-55 65 -55 170q0 150 69 289q75 151 171 151q98 0 152 -145q40 -109 40 -227v-258zM804 565q-28 161 -114 161q-30 0 -49 -23.5t-19 -54.5q0 -43 54 -66q40 -17 90 -17h38z" />
    <glyph glyph-name="uni06C6" unicode="&#x6c6;" horiz-adv-x="924" arabic-form="isolated" 
d="M924 362q0 -172 -146 -340t-288 -168q-83 0 -181.5 53t-302.5 209l42 58q108 -72 177 -96q57 -20 129 -20q97 0 192 54q112 64 232 206q-42 -6 -70 -6q-99 0 -157.5 64.5t-58.5 175.5q0 150 69 289q75 151 171 151q80 0 136 -109t56 -263v-258zM804 565q-28 161 -114 161
q-31 0 -49.5 -24.5t-18.5 -53.5q0 -36 39.5 -59.5t104.5 -23.5h38zM862 1365l-136 -230h-96l-136 230h117l67 -120l67 120h117z" />
    <glyph glyph-name="uni06C7" unicode="&#x6c7;" horiz-adv-x="924" arabic-form="isolated" 
d="M924 362q0 -172 -146 -340t-288 -168q-83 0 -181.5 53t-302.5 209l42 58q108 -72 177 -96q57 -20 129 -20q97 0 192 54q112 64 232 206q-42 -6 -70 -6q-99 0 -157.5 64.5t-58.5 175.5q0 150 69 289q75 151 171 151q80 0 136 -109t56 -263v-258zM804 565q-28 161 -114 161
q-31 0 -49.5 -24.5t-18.5 -53.5q0 -36 39.5 -59.5t104.5 -23.5h38zM829 1324q0 -17 -3 -35l-6 -36l-83 50q-50 -55 -68 -73q-74 -72 -124 -72h-73q53 25 124 81q64 51 97 90q-31 19 -47 40q-20 26 -20 57q0 66 38.5 116.5t83.5 50.5q26 0 47 -28t21 -68q0 -19 -5.5 -39.5
t-25.5 -75.5q16 -14 33 -27q11 -11 11 -31zM754 1437q0 27 -19 50t-37 23q-10 0 -15.5 -7t-5.5 -14q0 -22 25 -46l44 -34q8 20 8 28z" />
    <glyph glyph-name="uni06C8" unicode="&#x6c8;" horiz-adv-x="924" arabic-form="isolated" 
d="M924 362q0 -172 -146 -340t-288 -168q-83 0 -181.5 53t-302.5 209l42 58q108 -72 177 -96q57 -20 129 -20q97 0 192 54q112 64 232 206q-42 -6 -70 -6q-99 0 -157.5 64.5t-58.5 175.5q0 150 69 289q75 151 171 151q80 0 136 -109t56 -263v-258zM804 565q-28 161 -114 161
q-31 0 -49.5 -24.5t-18.5 -53.5q0 -36 39.5 -59.5t104.5 -23.5h38zM699 1234q0 -71 -49 -172l-28 12q11 59 11 99q0 65 -17 196q-8 59 -23 131q-6 28 -6 37q0 30 56 136l29 -169q27 -157 27 -270z" />
    <glyph glyph-name="uni06C9" unicode="&#x6c9;" horiz-adv-x="924" arabic-form="isolated" 
d="M924 362q0 -172 -146 -340t-288 -168q-83 0 -181.5 53t-302.5 209l42 58q108 -72 177 -96q57 -20 129 -20q97 0 192 54q112 64 232 206q-42 -6 -70 -6q-99 0 -157.5 64.5t-58.5 175.5q0 150 69 289q75 151 171 151q80 0 136 -109t56 -263v-258zM804 565q-28 161 -114 161
q-31 0 -49.5 -24.5t-18.5 -53.5q0 -36 39.5 -59.5t104.5 -23.5h38zM862 1135h-117l-67 120l-67 -120h-117l136 230h96z" />
    <glyph glyph-name="uni06CB" unicode="&#x6cb;" horiz-adv-x="924" arabic-form="isolated" 
d="M924 362q0 -172 -146 -340t-288 -168q-83 0 -181.5 53t-302.5 209l42 58q108 -72 177 -96q57 -20 129 -20q97 0 192 54q112 64 232 206q-42 -6 -70 -6q-99 0 -157.5 64.5t-58.5 175.5q0 150 69 289q75 151 171 151q80 0 136 -109t56 -263v-258zM804 565q-28 161 -114 161
q-31 0 -49.5 -24.5t-18.5 -53.5q0 -36 39.5 -59.5t104.5 -23.5h38zM706 1576l-100 -208l-188 100l102 204zM900 1339l-110 -204l-142 80l-80 -158l-186 102l104 194l148 -74l84 162z" />
    <glyph glyph-name="uni06CC" unicode="&#x6cc;" horiz-adv-x="1320" arabic-form="isolated" 
d="M1177 780q0 -55 -11 -91t-47 -95q-27 71 -45.5 92.5t-53.5 21.5q-54 0 -148.5 -61.5t-94.5 -103.5q0 -22 38 -31q27 -6 84 -6h29.5t29.5 1q109 0 145 -22q31 -19 31 -74q0 -108 -40 -207q-50 -125 -145 -178q-119 -67 -247.5 -108t-239.5 -41q-311 0 -311 279
q0 141 35 243q39 114 165 309l46 -30q-74 -125 -111 -222.5t-37 -170.5q0 -189 213 -189q80 0 152 14.5t146 40.5q48 17 110 44q99 44 105 47q45 24 45 43q0 10 -48.5 12.5t-68.5 2.5q-154 0 -206 44q-42 36 -42 133q0 46 29.5 116t77.5 139q73 105 146 159t143 54
q58 0 92 -45t34 -120z" />
    <glyph glyph-name="uni06CD.fina" unicode="&#x6cd;" horiz-adv-x="1135" 
d="M1135 293h-85q-82 0 -82 -23q0 -8 49 -27.5t49 -56.5q0 -57 -16 -132t-45.5 -138.5t-166.5 -135.5q-101 -54 -202 -86q-156 -50 -298 -50q-328 0 -328 294q0 274 167 513l-216 -110v61l288 150l43 -16q-164 -279 -164 -442q0 -97 64 -149q59 -49 158 -49q126 0 273 39
q132 35 226.5 84.5t94.5 81.5q0 14 -156 14h-97q-71 8 -71 45q0 127 65 205t152 134q102 66 186 66h112v-272z" />
    <glyph glyph-name="uni06CE.init" unicode="&#x6ce;" horiz-adv-x="556" 
d="M556 293h-626v272h526q-11 68 -40 115q-15 26 -70 90l80 238q75 -85 102.5 -178t27.5 -276v-261zM540 117l-110 -204l-142 80l-80 -158l-186 102l104 194l148 -74l84 162zM552 1365l-136 -230h-96l-136 230h117l67 -120l67 120h117z" />
    <glyph glyph-name="uni06CE.fina" unicode="&#x6ce;" horiz-adv-x="1135" 
d="M1135 293h-85q-37 0 -59.5 -6t-22.5 -17q0 -6 49 -25t49 -59q0 -55 -16.5 -132.5t-45.5 -139.5q-22 -48 -123 -110q-108 -66 -245 -110q-157 -50 -298 -50q-162 0 -245 75t-83 219q0 158 38 274q46 140 188 366l56 -42q-94 -160 -129 -255t-35 -187t59 -145t163 -53
q127 0 273 39q132 35 226.5 84.5t94.5 81.5q0 10 -56 12t-100 2q-106 0 -137 8t-31 37q0 54 19.5 114t46.5 92q66 80 156 136q101 63 181 63h112v-272zM712 869l-136 -230h-96l-136 230h117l67 -120l67 120h117z" />
    <glyph glyph-name="uni06D0" unicode="&#x6d0;" horiz-adv-x="1320" arabic-form="isolated" 
d="M1177 780q0 -55 -11 -91t-47 -95q-27 71 -45.5 92.5t-53.5 21.5q-54 0 -148.5 -61.5t-94.5 -103.5q0 -22 38 -31q27 -6 84 -6h29.5t29.5 1q109 0 145 -22q31 -19 31 -74q0 -108 -40 -207q-50 -125 -145 -178q-119 -67 -247.5 -108t-239.5 -41q-311 0 -311 279
q0 141 35 243q39 114 165 309l46 -30q-74 -125 -111 -222.5t-37 -170.5q0 -189 213 -189q80 0 152 14.5t146 40.5q48 17 110 44q99 44 105 47q45 24 45 43q0 10 -48.5 12.5t-68.5 2.5q-154 0 -206 44q-42 36 -42 133q0 46 29.5 116t77.5 139q73 105 146 159t143 54
q58 0 92 -45t34 -120zM645 -204l-34 -70l-94 24l36 70zM671 -312l-34 -70l-94 24l36 70z" />
    <glyph glyph-name="uni06D1.fina" unicode="&#x6d1;" horiz-adv-x="1135" 
d="M1135 293h-85q-82 0 -82 -23q0 -2 49 -24.5t49 -59.5q0 -57 -16 -132q-17 -81 -46 -140q-73 -150 -666 -150q-160 0 -238 54q-90 62 -90 210q0 159 70 305q44 91 156 245l56 -42q-164 -233 -164 -362q0 -72 64 -116q61 -42 158 -42q594 0 594 85q0 14 -156 14h-97
q-71 8 -71 45q0 127 65 205t152 134q102 66 186 66h112v-272zM685 -264l-34 -70l-102 29l34 70zM651 -364l-34 -70l-102 29l34 70zM526 -315l-34 -70l-102 29l34 70z" />
    <glyph glyph-name="uni06D2" unicode="&#x6d2;" horiz-adv-x="1663" arabic-form="isolated" 
d="M1663 192l-253 -243h-1169q-116 0 -141 14q-28 16 -29 48q-3 89 25 254q28 169 60 211q19 25 156 100q60 32 178 96q42 23 181 178q30 34 60 69q43 42 78 42q89 0 89 -233q0 -117 -11 -163q-61 124 -122 124q-82 0 -173 -158q-23 -42 -66 -94q-50 -26 -203 -104
q-120 -61 -120 -83q0 -29 94 -29h1366v-29z" />
    <glyph glyph-name="uni06D3" unicode="&#x6d3;" horiz-adv-x="1663" arabic-form="isolated" 
d="M1663 192l-253 -243h-1169q-116 0 -141 14q-28 16 -29 48q-3 89 25 254q28 169 60 211q19 25 156 100q60 32 178 96q42 23 181 178q30 34 60 69q43 42 78 42q89 0 89 -233q0 -117 -11 -163q-61 124 -122 124q-82 0 -173 -158q-23 -42 -66 -94q-50 -26 -203 -104
q-120 -61 -120 -83q0 -29 94 -29h1366v-29zM630 1063q-11 -29 -26 -44q-11 -11 -34 -18l-216 -66q20 36 35 49.5t54 24.5q-28 18 -40.5 33.5t-12.5 30.5q0 13 8 29.5t21 32.5q65 87 129 87q19 0 30.5 -12.5t11.5 -32.5q0 -16 -4.5 -27.5t-18.5 -34.5q-50 25 -68 25t-36 -9
q-12 -6 -22 -16q0 -13 48 -40t69 -27q13 0 72 15z" />
    <glyph glyph-name="uni06D5.fina" unicode="&#x6d5;" horiz-adv-x="850" 
d="M850 293h-131q-36 0 -66 15q-58 29 -98 106q-54 106 -70 290q-68 -84 -106 -119q-55 -51 -92 -51q-19 0 -48 6l-122 24q-78 16 -96 23t-18 25q0 27 69.5 170.5t100.5 177.5q25 27 89 70q38 26 108 67l53 31q-3 14 -4.5 28.5t-1.5 27.5q0 38 17.5 95.5t62.5 142.5l96 -624
q23 -147 60 -199q24 -34 66 -34h131v-272zM461 858l-20 120q-32 -15 -50 -24q-55 -29 -88 -54q-24 -20 -40 -37q-20 -22 -20 -33q0 -14 35 -22t69 -8q22 0 46 12.5t68 45.5z" />
    <glyph glyph-name="uni06EE.fina" unicode="&#x6ee;" horiz-adv-x="702" 
d="M702 293h-453q-66 0 -101 28q-43 34 -43 111q0 44 4.5 95t13.5 103l38 2q8 -35 35.5 -51t66.5 -16h344q-23 147 -80 235q-47 73 -131 126l72 312q130 -97 184 -250q50 -141 50 -374v-321zM542 1398h-117l-67 120l-67 -120h-117l136 230h96z" />
    <glyph glyph-name="uni06EF.fina" unicode="&#x6ef;" horiz-adv-x="886" 
d="M886 270q0 -61 -70 -161.5t-164 -174.5q-104 -82 -178 -82q-88 0 -189 50q-88 43 -275 172l42 62q90 -60 145 -81t119 -21q69 0 138 39t188 145q166 148 166 228q0 40 -32 105q-36 74 -88 123l56 270q68 -70 105 -161t37 -207v-306zM872 1062h-117l-67 120l-67 -120h-117
l136 230h96z" />
    <glyph glyph-name="uni06FA.init" unicode="&#x6fa;" horiz-adv-x="1246" 
d="M936 1489l-100 -208l-188 100l102 204zM1130 1252l-110 -204l-142 80l-87 -158l-179 102l104 194l148 -74l84 162zM1246 293q-112 0 -186 16t-146 51q-58 -41 -103.5 -54t-136.5 -13h-163q-67 0 -106 35t-70 116q-55 -84 -123 -120q-58 -31 -139 -31h-143v272h143
q105 0 175 59q91 77 91 234l66 -10q-2 -32 -4 -73t-2 -91q0 -51 35 -85t80 -34h123q122 0 174 34q63 41 63 153q0 24 15 43q9 11 37 33l38 30q2 -19 3 -51.5t1 -42.5q0 -55 -16 -146q37 -18 83 -31t97 -20q0 34 -25 88t-25 73q0 26 7 40q2 5 22 31l85 115
q27 -63 38.5 -114.5t11.5 -128.5v-378zM1055 95l-120 -224l-234 122l121 226z" />
    <glyph glyph-name="uni06FB.init" unicode="&#x6fb;" horiz-adv-x="1580" 
d="M1082 1367l-120 -224l-234 122l121 226zM1580 293h-1059q-71 0 -113.5 35.5t-72.5 115.5q-64 -89 -122 -121q-53 -29 -140 -29l-143 -1v272l143 1q116 0 176 58q70 68 90 234l68 -10q-3 -36 -4 -58q-4 -66 -4 -106q0 -57 30 -88t79 -31t90.5 20t130.5 83l358 256
q63 45 95 64q73 44 141 44q112 0 179 -79q78 -92 78 -277v-383zM1440 667q0 45 -71 73q-59 23 -132 23q-66 0 -148.5 -42.5t-239.5 -155.5h262q329 0 329 102zM1222 95l-120 -224l-234 122l121 226z" />
    <glyph glyph-name="uni06FC.init" unicode="&#x6fc;" horiz-adv-x="1108" 
d="M583 1514l-120 -224l-234 122l127 226zM990 770l-112 -284q-269 -83 -445 -128q-153 -39 -258 -54q-77 -11 -155 -11h-90v272h108q29 0 43 1q30 4 59 6q-50 75 -67 121.5t-17 104.5q0 149 123.5 260.5t288.5 111.5q111 0 212 -73q93 -68 136 -165l-42 -36
q-79 30 -125.5 39t-114.5 9q-124 0 -215 -20q-115 -25 -115 -72q0 -69 278 -228zM755 95l-120 -224l-234 122l121 226z" />
    <glyph glyph-name="uni06FC.medi" unicode="&#x6fc;" horiz-adv-x="738" 
d="M481 1424l-120 -224l-234 122l122 226zM738 293h-148q-79 0 -139 32t-97 103q-65 -80 -169 -113q-69 -22 -150 -22h-105v272h105q83 0 116.5 8.5t90.5 38.5q-30 59 -52 85q-27 31 -56 31q-11 0 -20.5 -7.5t-21.5 -28.5l-44 6q0 181 62.5 258.5t197.5 77.5
q139 0 218.5 -54.5t79.5 -149.5q0 -51 -21 -97.5t-79 -126.5q14 -19 38 -30t46 -11h148v-272zM555 95l-120 -224l-234 122l121 226z" />
    <glyph glyph-name="uni06FC.fina" unicode="&#x6fc;" horiz-adv-x="960" 
d="M647 1433l-120 -224l-234 122l122 226zM1056 -182l-368 -224q-325 0 -471.5 122.5t-146.5 383.5q0 182 70 329t220 279q-12 74 -54 74q-16 0 -25 -9q-12 -15 -23 -27l-48 10q0 139 62 230q70 102 196 102q112 0 185 -62t73 -160q0 -59 -30 -112q-33 -58 -90 -86
q50 -58 122 -85q49 -18 92 -18h140v-272h-140q-143 0 -229 56q-96 62 -173 221q-112 -74 -173 -169.5t-61 -194.5q0 -177 156.5 -262.5t493.5 -85.5q52 0 110 1t106 3zM745 165l-120 -224l-234 122l121 226z" />
    <glyph glyph-name="uni06FF.init" unicode="&#x6ff;" horiz-adv-x="960" 
d="M816 506q0 -73 -29 -160q-35 -106 -83 -106q-42 0 -139 40q-112 46 -233 122q-67 -59 -161 -87q-74 -22 -151 -22h-90v272h90q30 0 64.5 9t53.5 22v36q0 121 34 211q38 101 112 147l-48 36q12 81 22.5 127t37.5 131q150 -105 275 -256q115 -139 180 -279.5t65 -242.5z
M422 738q0 51 -14.5 79.5t-41.5 28.5q-45 0 -76 -33q-26 -28 -26 -57q0 -40 92 -82q22 10 33 17q33 22 33 47zM698 552q0 30 -43.5 91.5t-106.5 120.5q-6 -48 -14.5 -73t-39.5 -83q131 -72 186 -72q18 0 18 16zM512 1398h-117l-67 120l-67 -120h-117l136 230h96z" />
    <glyph glyph-name="uni06FF.medi" unicode="&#x6ff;" horiz-adv-x="924" 
d="M924 293h-204q-23 0 -47 -0.5t-71 -4.5q36 -21 72 -41q34 -26 34 -67q0 -39 -11 -83q-6 -25 -29 -89q-42 -125 -78 -169.5t-92 -44.5q-139 0 -239.5 146.5t-100.5 352.5h-228v272h90q54 0 110 10q63 14 88 19q111 301 196 435q75 117 138 117q51 0 88 -100
q32 -86 32 -170q0 -116 -46 -198q-50 -90 -150 -132q73 12 133 15.5t111 3.5h204v-272zM516 750q0 26 -19 64t-39 38q-26 0 -60.5 -56.5t-83.5 -177.5q115 40 158.5 68.5t43.5 63.5zM558 80q0 56 -64 106q-77 60 -222 90q16 -88 92 -153t164 -65q30 0 30 22zM692 1289h-117
l-67 120l-67 -120h-117l136 230h96z" />
    <glyph glyph-name="uni06FF.fina" unicode="&#x6ff;" horiz-adv-x="924" 
d="M924 293h-204q-23 0 -47 -0.5t-71 -4.5q36 -21 72 -41q34 -26 34 -67q0 -39 -11 -83q-6 -25 -29 -89q-42 -125 -78 -169.5t-92 -44.5q-139 0 -239.5 146.5t-100.5 352.5h-228v272h90q54 0 110 10q63 14 88 19q111 301 196 435q75 117 138 117q51 0 88 -100
q32 -86 32 -170q0 -116 -46 -198q-50 -90 -150 -132q73 12 133 15.5t111 3.5h204v-272zM516 750q0 26 -19 64t-39 38q-26 0 -60.5 -56.5t-83.5 -177.5q115 40 158.5 68.5t43.5 63.5zM558 80q0 56 -64 106q-77 60 -222 90q16 -88 92 -153t164 -65q30 0 30 22zM692 1289h-117
l-67 120l-67 -120h-117l136 230h96z" />
    <glyph glyph-name="uni0671.fina" unicode="&#x671;" horiz-adv-x="480" arabic-form="final" 
d="M480 293h-140q-117 0 -169 96q-58 106 -58 357v285q0 97 -27 151q-13 26 -60 75l108 250q58 -80 81 -158q27 -91 27 -232v-197q0 -209 28 -290q22 -65 70 -65h140v-272zM351 1724q0 -53 -48 -97q-52 -48 -124 -48h-167q-31 0 -31 -45q0 -5 2 -18q1 -12 0 -18
q-48 49 -48 101q0 66 76 66h24q118 159 234 159q82 0 82 -100zM261 1725q0 38 -32 38q-55 0 -140 -98h82q90 0 90 60z" />
    <glyph glyph-name="uni067B.fina" unicode="&#x67b;" horiz-adv-x="1330" arabic-form="final" 
d="M1330 293h-839q-121 0 -160.5 4t-85.5 21q-82 28 -135 114t-53 192q0 41 4 73.5t16 76.5q17 65 38 109t74 119l56 -40q-43 -79 -58.5 -125t-15.5 -91q0 -57 36.5 -102.5t95.5 -59.5q35 -9 91.5 -14t118.5 -5h723q-28 76 -46 108q-21 38 -68 97l90 232q75 -107 98 -196
q20 -78 20 -230v-283zM855 123l-100 -208l-188 100l102 204zM802 -46l186 -96l-100 -208l-188 100z" />
    <glyph glyph-name="uni067B.init" unicode="&#x67b;" horiz-adv-x="556" arabic-form="initial" 
d="M556 293h-626v272h526q-11 68 -40 115q-15 26 -70 90l80 238q75 -85 102.5 -178t27.5 -276v-261zM355 123l-100 -208l-188 100l102 204zM302 -46l186 -96l-100 -208l-188 100z" />
    <glyph glyph-name="uni067B.medi" unicode="&#x67b;" horiz-adv-x="556" arabic-form="medial" 
d="M556 293h-626v272h526q-11 68 -40 115q-15 26 -70 90l80 238q75 -85 102.5 -178t27.5 -276v-261zM355 123l-100 -208l-188 100l102 204zM302 -46l186 -96l-100 -208l-188 100z" />
    <glyph glyph-name="uni067E.fina" unicode="&#x67e;" horiz-adv-x="1330" arabic-form="final" 
d="M1330 293h-839q-121 0 -160.5 4t-85.5 21q-82 28 -135 114t-53 192q0 41 4 73.5t16 76.5q17 65 38 109t74 119l56 -40q-43 -79 -58.5 -125t-15.5 -91q0 -57 36.5 -102.5t95.5 -59.5q35 -9 91.5 -14t118.5 -5h723q-28 76 -46 108q-21 38 -68 97l90 232q75 -107 98 -196
q20 -78 20 -230v-283zM984 117l-104 -194l-148 74l-84 -162l-182 102l110 204l142 -80l80 158zM948 -192l-102 -204l-186 96l100 208z" />
    <glyph glyph-name="uni067E.init" unicode="&#x67e;" horiz-adv-x="556" arabic-form="initial" 
d="M556 293h-626v272h526q-11 68 -40 115q-15 26 -70 90l80 238q75 -85 102.5 -178t27.5 -276v-261zM540 117l-104 -194l-148 74l-84 -162l-182 102l110 204l142 -80l80 158zM504 -192l-102 -204l-186 96l100 208z" />
    <glyph glyph-name="uni067E.medi" unicode="&#x67e;" horiz-adv-x="556" arabic-form="medial" 
d="M556 293h-626v272h526q-11 68 -40 115q-15 26 -70 90l80 238q75 -85 102.5 -178t27.5 -276v-261zM540 117l-104 -194l-148 74l-84 -162l-182 102l110 204l142 -80l80 158zM504 -192l-102 -204l-186 96l100 208z" />
    <glyph glyph-name="uni0680.fina" unicode="&#x680;" horiz-adv-x="1330" arabic-form="final" 
d="M1330 293h-839q-121 0 -160.5 4t-85.5 21q-82 28 -135 114t-53 192q0 41 4 73.5t16 76.5q17 65 38 109t74 119l56 -40q-43 -79 -58.5 -125t-15.5 -91q0 -57 36.5 -102.5t95.5 -59.5q35 -9 91.5 -14t118.5 -5h723q-28 76 -46 108q-21 38 -68 97l90 232q75 -107 98 -196
q20 -78 20 -230v-283zM932 117l-104 -194l-148 74l-84 -162l-182 102l110 204l142 -80l80 158zM657 -124l142 -80l80 158l186 -102l-104 -194l-148 74l-84 -162l-182 102z" />
    <glyph glyph-name="uni0680.init" unicode="&#x680;" horiz-adv-x="556" arabic-form="initial" 
d="M556 293h-626v272h526q-11 68 -40 115q-15 26 -70 90l80 238q75 -85 102.5 -178t27.5 -276v-261zM472 117l-104 -194l-148 74l-84 -162l-182 102l110 204l142 -80l80 158zM197 -124l142 -80l80 158l186 -102l-104 -194l-148 74l-84 -162l-182 102z" />
    <glyph glyph-name="uni0680.medi" unicode="&#x680;" horiz-adv-x="556" arabic-form="medial" 
d="M556 293h-626v272h526q-11 68 -40 115q-15 26 -70 90l80 238q75 -85 102.5 -178t27.5 -276v-261zM472 117l-104 -194l-148 74l-84 -162l-182 102l110 204l142 -80l80 158zM197 -124l142 -80l80 158l186 -102l-104 -194l-148 74l-84 -162l-182 102z" />
    <glyph glyph-name="uni067A.fina" unicode="&#x67a;" horiz-adv-x="1330" arabic-form="final" 
d="M1330 293h-839q-121 0 -160.5 4t-85.5 21q-82 28 -135 114t-53 192q0 41 4 73.5t16 76.5q17 65 38 109t74 119l56 -40q-43 -79 -58.5 -125t-15.5 -91q0 -57 36.5 -102.5t95.5 -59.5q35 -9 91.5 -14t118.5 -5h723q-28 76 -46 108q-21 38 -68 97l90 232q75 -107 98 -196
q20 -78 20 -230v-283zM755 1473l-100 -208l-188 100l102 204zM702 1304l186 -96l-100 -208l-188 100z" />
    <glyph glyph-name="uni067A.init" unicode="&#x67a;" horiz-adv-x="556" arabic-form="initial" 
d="M556 293h-626v272h526q-11 68 -40 115q-15 26 -70 90l80 238q75 -85 102.5 -178t27.5 -276v-261zM315 1599l-100 -208l-188 100l102 204zM262 1430l186 -96l-100 -208l-188 100z" />
    <glyph glyph-name="uni067A.medi" unicode="&#x67a;" horiz-adv-x="556" arabic-form="medial" 
d="M556 293h-626v272h526q-11 68 -40 115q-15 26 -70 90l80 238q75 -85 102.5 -178t27.5 -276v-261zM315 1599l-100 -208l-188 100l102 204zM262 1430l186 -96l-100 -208l-188 100z" />
    <glyph glyph-name="uni067F.fina" unicode="&#x67f;" horiz-adv-x="1330" arabic-form="final" 
d="M1330 293h-839q-121 0 -160.5 4t-85.5 21q-82 28 -135 114t-53 192q0 41 4 73.5t16 76.5q17 65 38 109t74 119l56 -40q-43 -79 -58.5 -125t-15.5 -91q0 -57 36.5 -102.5t95.5 -59.5q35 -9 91.5 -14t118.5 -5h723q-28 76 -46 108q-21 38 -68 97l90 232q75 -107 98 -196
q20 -78 20 -230v-283zM872 1501l-104 -194l-148 74l-84 -162l-182 102l110 204l142 -80l80 158zM597 1260l142 -80l80 158l186 -102l-104 -194l-148 74l-84 -162l-182 102z" />
    <glyph glyph-name="uni067F.init" unicode="&#x67f;" horiz-adv-x="556" arabic-form="initial" 
d="M556 293h-626v272h526q-11 68 -40 115q-15 26 -70 90l80 238q75 -85 102.5 -178t27.5 -276v-261zM472 1627l-104 -194l-148 74l-84 -162l-182 102l110 204l142 -80l80 158zM197 1386l142 -80l80 158l186 -102l-104 -194l-148 74l-84 -162l-182 102z" />
    <glyph glyph-name="uni067F.medi" unicode="&#x67f;" horiz-adv-x="556" arabic-form="medial" 
d="M556 293h-626v272h526q-11 68 -40 115q-15 26 -70 90l80 238q75 -85 102.5 -178t27.5 -276v-261zM472 1627l-104 -194l-148 74l-84 -162l-182 102l110 204l142 -80l80 158zM197 1386l142 -80l80 158l186 -102l-104 -194l-148 74l-84 -162l-182 102z" />
    <glyph glyph-name="uni0679.fina" unicode="&#x679;" horiz-adv-x="1330" arabic-form="final" 
d="M1330 293h-839q-121 0 -160.5 4t-85.5 21q-82 28 -135 114t-53 192q0 41 4 73.5t16 76.5q17 65 38 109t74 119l56 -40q-43 -79 -58.5 -125t-15.5 -91q0 -57 36.5 -102.5t95.5 -59.5q35 -9 91.5 -14t118.5 -5h723q-28 76 -46 108q-21 38 -68 97l90 232q75 -107 98 -196
q20 -78 20 -230v-283zM965 1062h-544v130h64q12 0 64 39q22 16 51 40q0 101 -18 183l-26 104l-28 17q15 70 46 140l22 -9q-2 -6 -2 -12q0 -17 47 -40q11 -5 47 -19q-5 -39 -15 -70q-5 -14 -19 -50l-17 6q25 -115 25 -157v-6q0 -21 -5 -46q39 29 119 80q40 22 61 22
q128 0 128 -124v-228zM899 1240q0 28 -36 39q-21 7 -61 7q-60 0 -185 -94h125q157 0 157 48z" />
    <glyph glyph-name="uni0679.init" unicode="&#x679;" horiz-adv-x="556" arabic-form="initial" 
d="M556 293h-626v272h526q-11 68 -40 115q-15 26 -70 90l80 238q75 -85 102.5 -178t27.5 -276v-261zM556 1062h-544v130h64q12 0 64 39q22 16 51 40q0 101 -18 183l-26 104l-28 17q15 70 46 140l22 -9q-2 -6 -2 -12q0 -17 47 -40q11 -5 47 -19q-5 -39 -15 -70
q-5 -14 -19 -50l-17 6q25 -115 25 -157v-6q0 -21 -5 -46q39 29 119 80q40 22 61 22q128 0 128 -124v-228zM490 1240q0 28 -36 39q-21 7 -61 7q-60 0 -185 -94h125q157 0 157 48z" />
    <glyph glyph-name="uni0679.medi" unicode="&#x679;" horiz-adv-x="556" arabic-form="medial" 
d="M556 293h-626v272h526q-11 68 -40 115q-15 26 -70 90l80 238q75 -85 102.5 -178t27.5 -276v-261zM556 1062h-544v130h64q12 0 64 39q22 16 51 40q0 101 -18 183l-26 104l-28 17q15 70 46 140l22 -9q-2 -6 -2 -12q0 -17 47 -40q11 -5 47 -19q-5 -39 -15 -70
q-5 -14 -19 -50l-17 6q25 -115 25 -157v-6q0 -21 -5 -46q39 29 119 80q40 22 61 22q128 0 128 -124v-228zM490 1240q0 28 -36 39q-21 7 -61 7q-60 0 -185 -94h125q157 0 157 48z" />
    <glyph glyph-name="uni06A4.fina" unicode="&#x6a4;" horiz-adv-x="1552" arabic-form="final" 
d="M1552 293h-134q-175 0 -397 -8q-134 -5 -348 -15t-230 -10q-213 0 -308 75q-88 70 -88 217q0 114 22 199t102 275l66 -30q-72 -171 -72 -250q0 -103 81 -148q90 -50 311 -50q153 9 298 15.5t278 6.5q-41 20 -56.5 44.5t-15.5 71.5q0 143 87 285q94 153 207 153
q106 0 154 -148q43 -134 43 -411v-272zM1396 692q-35 98 -58 129t-60 31q-19 0 -33.5 -14.5t-14.5 -37.5q0 -31 43 -58t123 -50zM1306 1689l-100 -208l-188 100l102 204zM1500 1452l-110 -204l-142 80l-80 -158l-186 102l104 194l148 -74l84 162z" />
    <glyph glyph-name="uni06A4.init" unicode="&#x6a4;" horiz-adv-x="624" arabic-form="initial" 
d="M624 293h-694v272h600q0 87 -5 124q-8 57 -33 99q-32 -62 -86 -95t-115 -33q-80 0 -135 53t-55 133q0 118 72 280q79 178 160 178q105 0 198 -183t93 -387v-441zM407 966q-27 47 -47.5 65.5t-44.5 18.5q-30 0 -54 -27t-24 -63q0 -23 18.5 -38.5t47.5 -15.5
q23 0 46.5 13.5t57.5 46.5zM288 1624l-57 -96l-130 36l54 96zM463 1575l-57 -96l-130 36l54 96zM246 1487l-57 -96l-130 36l54 96z" />
    <glyph glyph-name="uni06A4.medi" unicode="&#x6a4;" horiz-adv-x="664" arabic-form="medial" 
d="M664 293h-734v272h180q46 0 87 -4q110 -12 251 -27q-149 33 -208.5 87.5t-59.5 158.5q0 155 71.5 279.5t160.5 124.5q101 0 176.5 -174.5t75.5 -421.5v-295zM528 708q-36 86 -80 134t-88 48q-20 0 -35 -13t-15 -31q0 -43 64.5 -83.5t153.5 -54.5zM346 1729l-100 -208
l-188 100l102 204zM540 1492l-110 -204l-142 80l-80 -158l-186 102l104 194l148 -74l84 162z" />
    <glyph glyph-name="uni06A6.fina" unicode="&#x6a6;" horiz-adv-x="1552" arabic-form="final" 
d="M1552 293h-134q-175 0 -397 -8q-134 -5 -348 -15t-230 -10q-213 0 -308 75q-88 70 -88 217q0 114 22 199t102 275l66 -30q-72 -171 -72 -250q0 -103 81 -148q90 -50 311 -50q153 9 298 15.5t278 6.5q-41 20 -56.5 44.5t-15.5 71.5q0 143 87 285q94 153 207 153
q106 0 154 -148q43 -134 43 -411v-272zM1396 692q-35 98 -58 129t-60 31q-19 0 -33.5 -14.5t-14.5 -37.5q0 -31 43 -58t123 -50zM1372 1707l-104 -194l-148 74l-84 -162l-182 102l110 204l142 -80l80 158zM1097 1466l142 -80l80 158l186 -102l-104 -194l-148 74l-84 -162
l-182 102z" />
    <glyph glyph-name="uni06A6.init" unicode="&#x6a6;" horiz-adv-x="624" arabic-form="initial" 
d="M624 293h-694v272h600q0 87 -5 124q-8 57 -33 99q-32 -62 -86 -95t-115 -33q-80 0 -135 53t-55 133q0 118 72 280q79 178 160 178q105 0 198 -183t93 -387v-441zM407 966q-27 47 -47.5 65.5t-44.5 18.5q-30 0 -54 -27t-24 -63q0 -23 18.5 -38.5t47.5 -15.5
q23 0 46.5 13.5t57.5 46.5zM504 1536l-54 -105l-144 44l56 105zM295 1445l-54 -105l-144 44l56 105zM404 1726l-54 -105l-144 44l56 105zM195 1635l-54 -105l-144 44l56 105z" />
    <glyph glyph-name="uni06A6.medi" unicode="&#x6a6;" horiz-adv-x="664" arabic-form="medial" 
d="M664 293h-734v272h180q46 0 87 -4q110 -12 251 -27q-149 33 -208.5 87.5t-59.5 158.5q0 155 71.5 279.5t160.5 124.5q101 0 176.5 -174.5t75.5 -421.5v-295zM528 708q-36 86 -80 134t-88 48q-20 0 -35 -13t-15 -31q0 -43 64.5 -83.5t153.5 -54.5zM498 1723l-104 -194
l-148 74l-84 -162l-182 102l110 204l142 -80l80 158zM223 1482l142 -80l80 158l186 -102l-104 -194l-148 74l-84 -162l-182 102z" />
    <glyph glyph-name="uni0684.fina" unicode="&#x684;" horiz-adv-x="1144" arabic-form="final" 
d="M1144 293h-156q-176 0 -240 51t-64 192q0 63 8 121q3 20 16 95q-228 -53 -368 -183q-144 -134 -144 -305q0 -200 171.5 -308t494.5 -108q95 0 272 18l18 -32l-380 -244l-96 -2q-293 0 -451.5 148.5t-158.5 423.5q0 209 95.5 387.5t244.5 258.5h-22q-93 0 -153.5 -17.5
t-182.5 -80.5q45 372 364 372q37 0 141 -11.5t185 -17.5q152 -11 298 -11l-60 -242q-59 0 -101 -7q-56 -12 -101 -21q-3 -19 -5.5 -43t-2.5 -37q0 -71 47 -98t174 -27h157v-272zM605 433l-100 -208l-188 100l102 204zM552 264l186 -96l-100 -208l-188 100z" />
    <glyph glyph-name="uni0684.init" unicode="&#x684;" horiz-adv-x="1072" arabic-form="initial" 
d="M1072 293h-1142v272h711q-121 125 -224 180q-91 49 -178 49q-26 0 -47.5 -2.5t-62.5 -11.5q55 126 122.5 186t153.5 60q66 0 127 -32t137 -103q60 -56 170 -175q75 -84 114.5 -109t118.5 -42v-272zM615 123l-100 -208l-188 100l102 204zM562 -46l186 -96l-100 -208
l-188 100z" />
    <glyph glyph-name="uni0684.medi" unicode="&#x684;" horiz-adv-x="1072" arabic-form="medial" 
d="M1072 293h-1142v272h711q-121 125 -224 180q-91 49 -178 49q-26 0 -47.5 -2.5t-62.5 -11.5q55 126 122.5 186t153.5 60q66 0 127 -32t137 -103q60 -56 170 -175q75 -84 114.5 -109t118.5 -42v-272zM615 123l-100 -208l-188 100l102 204zM562 -46l186 -96l-100 -208
l-188 100z" />
    <glyph glyph-name="uni0683.fina" unicode="&#x683;" horiz-adv-x="1144" arabic-form="final" 
d="M1144 293h-156q-176 0 -240 51t-64 192q0 63 8 121q3 20 16 95q-228 -53 -368 -183q-144 -134 -144 -305q0 -200 171.5 -308t494.5 -108q95 0 272 18l18 -32l-380 -244l-96 -2q-293 0 -451.5 148.5t-158.5 423.5q0 209 95.5 387.5t244.5 258.5h-22q-93 0 -153.5 -17.5
t-182.5 -80.5q45 372 364 372q37 0 141 -11.5t185 -17.5q152 -11 298 -11l-60 -242q-59 0 -101 -7q-56 -12 -101 -21q-3 -19 -5.5 -43t-2.5 -37q0 -71 47 -98t174 -27h157v-272zM780 277l-104 -194l-148 74l-84 -162l-182 102l110 204l142 -80l80 158z" />
    <glyph glyph-name="uni0683.init" unicode="&#x683;" horiz-adv-x="1072" arabic-form="initial" 
d="M1072 293h-1142v272h711q-121 125 -224 180q-91 49 -178 49q-26 0 -47.5 -2.5t-62.5 -11.5q55 126 122.5 186t153.5 60q66 0 127 -32t137 -103q60 -56 170 -175q75 -84 114.5 -109t118.5 -42v-272zM800 117l-104 -194l-148 74l-84 -162l-182 102l110 204l142 -80l80 158z
" />
    <glyph glyph-name="uni0683.medi" unicode="&#x683;" horiz-adv-x="1072" arabic-form="medial" 
d="M1072 293h-1142v272h711q-121 125 -224 180q-91 49 -178 49q-26 0 -47.5 -2.5t-62.5 -11.5q55 126 122.5 186t153.5 60q66 0 127 -32t137 -103q60 -56 170 -175q75 -84 114.5 -109t118.5 -42v-272zM800 117l-104 -194l-148 74l-84 -162l-182 102l110 204l142 -80l80 158z
" />
    <glyph glyph-name="uni0686.fina" unicode="&#x686;" horiz-adv-x="1144" arabic-form="final" 
d="M1144 293h-156q-176 0 -240 51t-64 192q0 63 8 121q3 20 16 95q-228 -53 -368 -183q-144 -134 -144 -305q0 -200 171.5 -308t494.5 -108q95 0 272 18l18 -32l-380 -244l-96 -2q-293 0 -451.5 148.5t-158.5 423.5q0 209 95.5 387.5t244.5 258.5h-22q-93 0 -153.5 -17.5
t-182.5 -80.5q45 372 364 372q37 0 141 -11.5t185 -17.5q152 -11 298 -11l-60 -242q-59 0 -101 -7q-56 -12 -101 -21q-3 -19 -5.5 -43t-2.5 -37q0 -71 47 -98t174 -27h157v-272zM686 381l-88 -165l-126 63l-72 -138l-154 87l93 173l121 -68l68 135zM655 118l-86 -173
l-158 82l85 176z" />
    <glyph glyph-name="uni0686.init" unicode="&#x686;" horiz-adv-x="1072" arabic-form="initial" 
d="M1072 293h-1142v272h711q-121 125 -224 180q-91 49 -178 49q-26 0 -47.5 -2.5t-62.5 -11.5q55 126 122.5 186t153.5 60q66 0 127 -32t137 -103q60 -56 170 -175q75 -84 114.5 -109t118.5 -42v-272zM765 117l-104 -194l-148 74l-84 -162l-182 102l110 204l142 -80l80 158z
M729 -192l-102 -204l-186 96l100 208z" />
    <glyph glyph-name="uni0686.medi" unicode="&#x686;" horiz-adv-x="1072" arabic-form="medial" 
d="M1072 293h-1142v272h711q-121 125 -224 180q-91 49 -178 49q-26 0 -47.5 -2.5t-62.5 -11.5q55 126 122.5 186t153.5 60q66 0 127 -32t137 -103q60 -56 170 -175q75 -84 114.5 -109t118.5 -42v-272zM765 117l-104 -194l-148 74l-84 -162l-182 102l110 204l142 -80l80 158z
M729 -192l-102 -204l-186 96l100 208z" />
    <glyph glyph-name="uni0687.fina" unicode="&#x687;" horiz-adv-x="1144" arabic-form="final" 
d="M1144 293h-156q-176 0 -240 51t-64 192q0 63 8 121q3 20 16 95q-228 -53 -368 -183q-144 -134 -144 -305q0 -200 171.5 -308t494.5 -108q95 0 272 18l18 -32l-380 -244l-96 -2q-293 0 -451.5 148.5t-158.5 423.5q0 209 95.5 387.5t244.5 258.5h-22q-93 0 -153.5 -17.5
t-182.5 -80.5q45 372 364 372q37 0 141 -11.5t185 -17.5q152 -11 298 -11l-60 -242q-59 0 -101 -7q-56 -12 -101 -21q-3 -19 -5.5 -43t-2.5 -37q0 -71 47 -98t174 -27h157v-272zM754 196l-54 -105l-144 44l56 105zM545 105l-54 -105l-144 44l56 105zM654 386l-54 -105
l-144 44l56 105zM445 295l-54 -105l-144 44l56 105z" />
    <glyph glyph-name="uni0687.init" unicode="&#x687;" horiz-adv-x="1072" arabic-form="initial" 
d="M1072 293h-1142v272h711q-121 125 -224 180q-91 49 -178 49q-26 0 -47.5 -2.5t-62.5 -11.5q55 126 122.5 186t153.5 60q66 0 127 -32t137 -103q60 -56 170 -175q75 -84 114.5 -109t118.5 -42v-272zM752 117l-104 -194l-148 74l-84 -162l-182 102l110 204l142 -80l80 158z
M477 -124l142 -80l80 158l186 -102l-104 -194l-148 74l-84 -162l-182 102z" />
    <glyph glyph-name="uni0687.medi" unicode="&#x687;" horiz-adv-x="1072" arabic-form="medial" 
d="M1072 293h-1142v272h711q-121 125 -224 180q-91 49 -178 49q-26 0 -47.5 -2.5t-62.5 -11.5q55 126 122.5 186t153.5 60q66 0 127 -32t137 -103q60 -56 170 -175q75 -84 114.5 -109t118.5 -42v-272zM752 117l-104 -194l-148 74l-84 -162l-182 102l110 204l142 -80l80 158z
M477 -124l142 -80l80 158l186 -102l-104 -194l-148 74l-84 -162l-182 102z" />
    <glyph glyph-name="uni068D.fina" unicode="&#x68d;" horiz-adv-x="702" arabic-form="final" 
d="M702 293h-453q-66 0 -101 28q-43 34 -43 111q0 44 4.5 95t13.5 103l38 2q8 -35 35.5 -51t66.5 -16h344q-23 147 -80 235q-47 73 -131 126l72 312q130 -97 184 -250q50 -141 50 -374v-321zM680 117l-104 -194l-148 74l-84 -162l-182 102l110 204l142 -80l80 158z" />
    <glyph glyph-name="uni068C.fina" unicode="&#x68c;" horiz-adv-x="702" arabic-form="final" 
d="M702 293h-453q-66 0 -101 28q-43 34 -43 111q0 44 4.5 95t13.5 103l38 2q8 -35 35.5 -51t66.5 -16h344q-23 147 -80 235q-47 73 -131 126l72 312q130 -97 184 -250q50 -141 50 -374v-321zM620 1637l-104 -194l-148 74l-84 -162l-182 102l110 204l142 -80l80 158z" />
    <glyph glyph-name="uni068E.fina" unicode="&#x68e;" horiz-adv-x="702" arabic-form="final" 
d="M702 293h-453q-66 0 -101 28q-43 34 -43 111q0 44 4.5 95t13.5 103l38 2q8 -35 35.5 -51t66.5 -16h344q-23 97 -80 165q-47 63 -131 96l72 312q130 -77 184 -220q50 -121 50 -304v-321zM446 1723l-100 -208l-188 100l102 204zM640 1486l-110 -204l-142 80l-80 -158
l-186 102l104 194l148 -74l84 162z" />
    <glyph glyph-name="uni0688.fina" unicode="&#x688;" horiz-adv-x="702" arabic-form="final" 
d="M702 293h-453q-66 0 -101 28q-43 34 -43 111q0 44 4.5 95t13.5 103l38 2q8 -35 35.5 -51t66.5 -16h344q-23 97 -80 165q-47 63 -131 96l72 312q130 -77 184 -220q50 -121 50 -304v-321zM623 1172h-544v130h64q12 0 64 39q22 16 51 40q0 101 -18 183l-26 104l-28 17
q15 70 46 140l22 -9q-2 -6 -2 -12q0 -17 47 -40q11 -5 47 -19q-5 -39 -15 -70q-5 -14 -19 -50l-17 6q25 -115 25 -157v-6q0 -21 -5 -46q39 29 119 80q40 22 61 22q128 0 128 -124v-228zM557 1350q0 28 -36 39q-21 7 -61 7q-60 0 -185 -94h125q157 0 157 48z" />
    <glyph glyph-name="uni0698.fina" unicode="&#x698;" horiz-adv-x="886" arabic-form="final" 
d="M886 270q0 -61 -70 -161.5t-164 -174.5q-104 -82 -178 -82q-88 0 -189 50q-88 43 -275 172l42 62q90 -60 145 -81t119 -21q69 0 138 39t188 145q166 148 166 228q0 40 -32 105q-36 74 -88 123l56 270q68 -70 105 -161t37 -207v-306zM721 1569l-100 -208l-188 100l102 204
zM915 1332l-110 -204l-142 80l-80 -158l-186 102l104 194l148 -74l84 162z" />
    <glyph glyph-name="uni0691.fina" unicode="&#x691;" horiz-adv-x="886" arabic-form="final" 
d="M886 270q0 -61 -70 -161.5t-164 -174.5q-104 -82 -178 -82q-88 0 -189 50q-88 43 -275 172l42 62q90 -60 145 -81t119 -21q69 0 138 39t188 145q166 148 166 228q0 40 -32 105q-36 74 -88 123l56 270q68 -70 105 -161t37 -207v-306zM852 1062h-544v130h64q12 0 64 39
q22 16 51 40q0 101 -18 183l-26 104l-28 17q15 70 46 140l22 -9q-2 -6 -2 -12q0 -17 47 -40q11 -5 47 -19q-5 -39 -15 -70q-5 -14 -19 -50l-17 6q25 -115 25 -157v-6q0 -21 -5 -46q39 29 119 80q40 22 61 22q128 0 128 -124v-228zM786 1240q0 28 -36 39q-21 7 -61 7
q-60 0 -185 -94h125q157 0 157 48z" />
    <glyph glyph-name="uni06A9.fina" unicode="&#x6a9;" horiz-adv-x="1800" arabic-form="final" 
d="M790 565q108 0 163 5q86 8 132 31q54 27 54 80q0 27 -34 67t-75 62l-35 -35q-77 73 -96 94q-56 63 -56 136q0 101 14 142q20 58 85 103q55 38 148 80q75 34 182 75q96 36 193 73v-238l-107 -33q-123 -39 -201 -69q-108 -42 -108 -59q-1 -15 -1 -21q0 -23 21 -47
q28 -32 117 -102q65 -52 182 -163q99 -95 148 -129q74 -52 140 -52h144v-272h-136q-75 0 -167 65q-75 53 -154 140q-42 46 -110 134q0 -167 -110 -250q-118 -89 -377 -89h-309q-216 0 -311 74q-85 66 -85 205q0 93 28.5 182.5t97.5 213.5l60 -42q-39 -77 -50.5 -114.5
t-11.5 -79.5q0 -96 71 -131.5t271 -35.5h283z" />
    <glyph glyph-name="uni06A9.init" unicode="&#x6a9;" horiz-adv-x="738" arabic-form="initial" 
d="M738 293h-808v272h649q-39 47 -76 82q-30 28 -81 68q-57 44 -113 88l-32 -36q-89 88 -106 107q-50 57 -50 131q0 101 14 142q20 58 85 103q58 40 124 73q52 26 138 61q40 16 169 66v-238q-5 0 -84 -26q-98 -32 -156 -56q-84 -34 -84 -51q0 -9 71 -78q97 -94 163 -172
q109 -129 177 -257v-279z" />
    <glyph glyph-name="uni06A9.medi" unicode="&#x6a9;" horiz-adv-x="1110" arabic-form="medial" 
d="M-70 293v272h170q108 0 163 5q86 8 132 31q54 27 54 80q0 27 -34 67t-75 62l-35 -35q-77 73 -96 94q-56 63 -56 136q0 101 14 142q20 58 85 103q55 38 148 80q75 34 182 75q96 36 193 73v-238l-107 -33q-123 -39 -201 -69q-108 -42 -108 -59q-1 -15 -1 -21q0 -23 21 -47
q28 -32 117 -102q65 -52 182 -163q99 -95 148 -129q74 -52 140 -52h144v-272h-136q-75 0 -167 65q-75 53 -154 140q-42 46 -110 134q0 -167 -110 -250q-118 -89 -377 -89h-126z" />
    <glyph glyph-name="uni06AF.fina" unicode="&#x6af;" horiz-adv-x="1800" arabic-form="final" 
d="M790 565q108 0 163 5q86 8 132 31q54 27 54 80q0 27 -34 67t-75 62l-35 -35q-77 73 -96 94q-56 63 -56 136q0 101 14 142q20 58 85 103q55 38 148 80q75 34 182 75q96 36 193 73v-238l-107 -33q-123 -39 -201 -69q-108 -42 -108 -59q-1 -15 -1 -21q0 -23 21 -47
q28 -32 117 -102q65 -52 182 -163q99 -95 148 -129q74 -52 140 -52h144v-272h-136q-75 0 -167 65q-75 53 -154 140q-42 46 -110 134q0 -167 -110 -250q-118 -89 -377 -89h-309q-216 0 -311 74q-85 66 -85 205q0 93 28.5 182.5t97.5 213.5l60 -42q-39 -77 -50.5 -114.5
t-11.5 -79.5q0 -96 71 -131.5t271 -35.5h283zM1465 1795v-223q-215 -79 -372 -153q-144 -68 -229 -125v154q34 34 119 92q99 67 210 127q137 74 272 128z" />
    <glyph glyph-name="uni06AF.init" unicode="&#x6af;" horiz-adv-x="738" arabic-form="initial" 
d="M738 293h-808v272h649q-39 47 -76 82q-30 28 -81 68q-57 44 -113 88l-32 -36q-89 88 -106 107q-50 57 -50 131q0 101 14 142q20 58 85 103q58 40 124 73q52 26 138 61q40 16 169 66v-238q-5 0 -84 -26q-98 -32 -156 -56q-84 -34 -84 -51q0 -9 71 -78q97 -94 163 -172
q109 -129 177 -257v-279zM651 1767v-223q-215 -79 -372 -153q-144 -68 -229 -125v154q34 34 119 92q99 67 210 127q137 74 272 128z" />
    <glyph glyph-name="uni06AF.medi" unicode="&#x6af;" horiz-adv-x="1110" arabic-form="medial" 
d="M-70 293v272h170q108 0 163 5q86 8 132 31q54 27 54 80q0 27 -34 67t-75 62l-35 -35q-77 73 -96 94q-56 63 -56 136q0 101 14 142q20 58 85 103q55 38 148 80q75 34 182 75q96 36 193 73v-238l-107 -33q-123 -39 -201 -69q-108 -42 -108 -59q-1 -15 -1 -21q0 -23 21 -47
q28 -32 117 -102q65 -52 182 -163q99 -95 148 -129q74 -52 140 -52h144v-272h-136q-75 0 -167 65q-75 53 -154 140q-42 46 -110 134q0 -167 -110 -250q-118 -89 -377 -89h-126zM775 1795v-223q-215 -79 -372 -153q-144 -68 -229 -125v154q34 34 119 92q99 67 210 127
q137 74 272 128z" />
    <glyph glyph-name="uni06B3.fina" unicode="&#x6b3;" horiz-adv-x="1800" arabic-form="final" 
d="M790 565q108 0 163 5q86 8 132 31q54 27 54 80q0 27 -34 67t-75 62l-35 -35q-77 73 -96 94q-56 63 -56 136q0 101 14 142q20 58 85 103q55 38 148 80q75 34 182 75q96 36 193 73v-238l-107 -33q-123 -39 -201 -69q-108 -42 -108 -59q-1 -15 -1 -21q0 -23 21 -47
q28 -32 117 -102q65 -52 182 -163q99 -95 148 -129q74 -52 140 -52h144v-272h-136q-75 0 -167 65q-75 53 -154 140q-42 46 -110 134q0 -167 -110 -250q-118 -89 -377 -89h-309q-216 0 -311 74q-85 66 -85 205q0 93 28.5 182.5t97.5 213.5l60 -42q-39 -77 -50.5 -114.5
t-11.5 -79.5q0 -96 71 -131.5t271 -35.5h283zM1465 1795v-223q-215 -79 -372 -153q-144 -68 -229 -125v154q34 34 119 92q99 67 210 127q137 74 272 128zM755 123l-100 -208l-188 100l102 204zM702 -46l186 -96l-100 -208l-188 100z" />
    <glyph glyph-name="uni06B3.init" unicode="&#x6b3;" horiz-adv-x="738" arabic-form="initial" 
d="M738 293h-808v272h649q-39 47 -76 82q-30 28 -81 68q-57 44 -113 88l-32 -36q-89 88 -106 107q-50 57 -50 131q0 101 14 142q20 58 85 103q58 40 124 73q52 26 138 61q40 16 169 66v-238q-5 0 -84 -26q-98 -32 -156 -56q-84 -34 -84 -51q0 -9 71 -78q97 -94 163 -172
q109 -129 177 -257v-279zM651 1767v-223q-215 -79 -372 -153q-144 -68 -229 -125v154q34 34 119 92q99 67 210 127q137 74 272 128zM447 123l-100 -208l-188 100l102 204zM394 -46l186 -96l-100 -208l-188 100z" />
    <glyph glyph-name="uni06B3.medi" unicode="&#x6b3;" horiz-adv-x="1110" arabic-form="medial" 
d="M-70 293v272h170q108 0 163 5q86 8 132 31q54 27 54 80q0 27 -34 67t-75 62l-35 -35q-77 73 -96 94q-56 63 -56 136q0 101 14 142q20 58 85 103q55 38 148 80q75 34 182 75q96 36 193 73v-238l-107 -33q-123 -39 -201 -69q-108 -42 -108 -59q-1 -15 -1 -21q0 -23 21 -47
q28 -32 117 -102q65 -52 182 -163q99 -95 148 -129q74 -52 140 -52h144v-272h-136q-75 0 -167 65q-75 53 -154 140q-42 46 -110 134q0 -167 -110 -250q-118 -89 -377 -89h-126zM775 1795v-223q-215 -79 -372 -153q-144 -68 -229 -125v154q34 34 119 92q99 67 210 127
q137 74 272 128zM355 123l-100 -208l-188 100l102 204zM302 -46l186 -96l-100 -208l-188 100z" />
    <glyph glyph-name="uni06B1.fina" unicode="&#x6b1;" horiz-adv-x="1800" arabic-form="final" 
d="M790 565q108 0 163 5q86 8 132 31q54 27 54 80q0 27 -34 67t-75 62l-35 -35q-77 73 -96 94q-56 63 -56 136q0 101 14 142q20 58 85 103q55 38 148 80q75 34 182 75q96 36 193 73v-238l-107 -33q-123 -39 -201 -69q-108 -42 -108 -59q-1 -15 -1 -21q0 -23 21 -47
q28 -32 117 -102q65 -52 182 -163q99 -95 148 -129q74 -52 140 -52h144v-272h-136q-75 0 -167 65q-75 53 -154 140q-42 46 -110 134q0 -167 -110 -250q-118 -89 -377 -89h-309q-216 0 -311 74q-85 66 -85 205q0 93 28.5 182.5t97.5 213.5l60 -42q-39 -77 -50.5 -114.5
t-11.5 -79.5q0 -96 71 -131.5t271 -35.5h283zM1465 1795v-223q-215 -79 -372 -153q-144 -68 -229 -125v154q34 34 119 92q99 67 210 127q137 74 272 128zM1234 1781l-54 -105l-144 44l56 105zM1025 1690l-54 -105l-144 44l56 105z" />
    <glyph glyph-name="uni06B1.init" unicode="&#x6b1;" horiz-adv-x="738" arabic-form="initial" 
d="M738 293h-808v272h649q-39 47 -76 82q-30 28 -81 68q-57 44 -113 88l-32 -36q-89 88 -106 107q-50 57 -50 131q0 101 14 142q20 58 85 103q58 40 124 73q52 26 138 61q40 16 169 66v-238q-5 0 -84 -26q-98 -32 -156 -56q-84 -34 -84 -51q0 -9 71 -78q97 -94 163 -172
q109 -129 177 -257v-279zM651 1767v-223q-215 -79 -372 -153q-144 -68 -229 -125v154q34 34 119 92q99 67 210 127q137 74 272 128zM454 1781l-54 -105l-144 44l56 105zM245 1690l-54 -105l-144 44l56 105z" />
    <glyph glyph-name="uni06B1.medi" unicode="&#x6b1;" horiz-adv-x="1110" arabic-form="medial" 
d="M-70 293v272h170q108 0 163 5q86 8 132 31q54 27 54 80q0 27 -34 67t-75 62l-35 -35q-77 73 -96 94q-56 63 -56 136q0 101 14 142q20 58 85 103q55 38 148 80q75 34 182 75q96 36 193 73v-238l-107 -33q-123 -39 -201 -69q-108 -42 -108 -59q-1 -15 -1 -21q0 -23 21 -47
q28 -32 117 -102q65 -52 182 -163q99 -95 148 -129q74 -52 140 -52h144v-272h-136q-75 0 -167 65q-75 53 -154 140q-42 46 -110 134q0 -167 -110 -250q-118 -89 -377 -89h-126zM775 1795v-223q-215 -79 -372 -153q-144 -68 -229 -125v154q34 34 119 92q99 67 210 127
q137 74 272 128zM534 1781l-54 -105l-144 44l56 105zM325 1690l-54 -105l-144 44l56 105z" />
    <glyph glyph-name="uni06BA.fina" unicode="&#x6ba;" horiz-adv-x="1108" arabic-form="final" 
d="M1108 342q0 -138 -27 -221.5t-88.5 -134.5t-180 -83.5t-244.5 -32.5q-243 0 -374.5 88.5t-131.5 251.5q0 139 42 254q46 127 180 330l60 -42q-99 -169 -129.5 -245t-30.5 -157q0 -105 112.5 -171.5t295.5 -66.5q180 0 303 69t123 169q0 62 -21.5 123t-92.5 195l88 270
q70 -127 86 -175q30 -87 30 -221v-200z" />
    <glyph glyph-name="uni06BB.fina" unicode="&#x6bb;" horiz-adv-x="1108" arabic-form="final" 
d="M1108 342q0 -138 -27 -221.5t-88.5 -134.5t-180 -83.5t-244.5 -32.5q-243 0 -374.5 88.5t-131.5 251.5q0 139 42 254q46 127 180 330l60 -42q-99 -169 -129.5 -245t-30.5 -157q0 -105 112.5 -171.5t295.5 -66.5q180 0 303 69t123 169q0 62 -21.5 123t-92.5 195l88 270
q70 -127 86 -175q30 -87 30 -221v-200zM872 982h-544v130h64q12 0 64 39q22 16 51 40q0 101 -18 183l-26 104l-28 17q15 70 46 140l22 -9q-2 -6 -2 -12q0 -17 47 -40q11 -5 47 -19q-5 -39 -15 -70q-5 -14 -19 -50l-17 6q25 -115 25 -157v-6q0 -21 -5 -46q39 29 119 80
q40 22 61 22q128 0 128 -124v-228zM806 1160q0 28 -36 39q-21 7 -61 7q-60 0 -185 -94h125q157 0 157 48z" />
    <glyph glyph-name="uni06C0.fina" unicode="&#x6c0;" horiz-adv-x="850" arabic-form="final" 
d="M850 293h-131q-36 0 -66 15q-58 29 -98 106q-54 106 -70 290q-68 -84 -106 -119q-55 -51 -92 -51q-19 0 -48 6l-122 24q-78 16 -96 23t-18 25q0 27 69.5 170.5t100.5 177.5q25 27 89 70q38 26 108 67l53 31q-3 14 -4.5 28.5t-1.5 27.5q0 38 17.5 95.5t62.5 142.5l96 -624
q23 -147 60 -199q24 -34 66 -34h131v-272zM461 858l-20 120q-32 -15 -50 -24q-55 -29 -88 -54q-24 -20 -40 -37q-20 -22 -20 -33q0 -14 35 -22t69 -8q22 0 46 12.5t68 45.5zM370 1363q-11 -29 -26 -44q-11 -11 -34 -18l-216 -66q20 36 35 49.5t54 24.5q-28 18 -40.5 33.5
t-12.5 30.5q0 13 8 29.5t21 32.5q65 87 129 87q19 0 30.5 -12.5t11.5 -32.5q0 -16 -4.5 -27.5t-18.5 -34.5q-50 25 -68 25t-36 -9q-12 -6 -22 -16q0 -13 48 -40t69 -27q13 0 72 15z" />
    <glyph glyph-name="uniFBA6" unicode="&#x6c1;" horiz-adv-x="702" arabic-form="isolated" 
d="M622 668q0 -60 -9.5 -121.5t-24.5 -100.5q-28 -76 -138 -134q-102 -54 -192 -54q-78 0 -124 54t-46 144q0 82 23.5 161t84.5 199l-36 24q17 46 46 111.5t52 110.5l98 -58q64 -39 122 -84q82 -62 113 -116.5t31 -135.5zM474 588q0 19 -69.5 79t-136.5 103
q-64 -101 -64 -168q0 -32 26.5 -55t63.5 -23q50 0 115 23.5t65 40.5z" />
    <glyph glyph-name="uni06C1.init" unicode="&#x6c1;" horiz-adv-x="556" arabic-form="initial" 
d="M556 293h-626v272h526q-11 66 -40 115q-17 29 -70 90l80 238q84 -96 111 -212q19 -80 19 -242v-261zM371 -182q0 -40 -28 -66.5t-68 -26.5q-54 0 -88 48t-34 123q0 102 59 177q28 35 88 78l23 -38q-45 -42 -62 -63q-37 -48 -37 -85q0 -36 73.5 -52t73.5 -95z" />
    <glyph glyph-name="uni06C1.medi" unicode="&#x6c1;" horiz-adv-x="656" arabic-form="medial" 
d="M656 293h-50q-192 0 -192 -149q0 -98 -41 -98q-81 0 -122 194q-21 101 -8 217q-80 -164 -223 -164h-90v272h90q120 0 192 65q63 56 107 178l72 -18q-70 -225 -70 -337q0 -109 20 -183q5 126 88 212q80 83 187 83h40v-272zM501 -327q0 -40 -28 -66.5t-68 -26.5
q-54 0 -88 48t-34 123q0 102 59 177q28 35 88 78l23 -38q-45 -42 -62 -63q-37 -48 -37 -85q0 -36 73.5 -52t73.5 -95z" />
    <glyph glyph-name="uni0647.fina" unicode="&#x6be;" horiz-adv-x="850" arabic-form="final" 
d="M850 293h-131q-36 0 -66 15q-58 29 -98 106q-54 106 -70 290q-68 -84 -106 -119q-55 -51 -92 -51q-19 0 -48 6l-122 24q-78 16 -96 23t-18 25q0 27 69.5 170.5t100.5 177.5q25 27 89 70q38 26 108 67l53 31q-3 14 -4.5 28.5t-1.5 27.5q0 38 17.5 95.5t62.5 142.5l96 -624
q23 -147 60 -199q24 -34 66 -34h131v-272zM461 858l-20 120q-32 -15 -50 -24q-55 -29 -88 -54q-24 -20 -40 -37q-20 -22 -20 -33q0 -14 35 -22t69 -8q22 0 46 12.5t68 45.5z" />
    <glyph glyph-name="uni06BE.fina" unicode="&#x6be;" horiz-adv-x="924" arabic-form="medial" 
d="M924 293h-204q-23 0 -47 -0.5t-71 -4.5q36 -21 72 -41q34 -26 34 -67q0 -39 -11 -83q-6 -25 -29 -89q-42 -125 -78 -169.5t-92 -44.5q-139 0 -239.5 146.5t-100.5 352.5h-228v272h90q54 0 110 10q63 14 88 19q111 301 196 435q75 117 138 117q51 0 88 -100
q32 -86 32 -170q0 -116 -46 -198q-50 -90 -150 -132q73 12 133 15.5t111 3.5h204v-272zM516 750q0 26 -19 64t-39 38q-26 0 -60.5 -56.5t-83.5 -177.5q115 40 158.5 68.5t43.5 63.5zM558 80q0 56 -64 106q-77 60 -222 90q16 -88 92 -153t164 -65q30 0 30 22z" />
    <glyph glyph-name="uni06D2.fina" unicode="&#x6d2;" horiz-adv-x="1663" arabic-form="final" 
d="M1663 -162l-253 -263h-1169q-116 0 -141 14q-28 16 -29 48q-2 70 17 166q43 215 68 253q68 103 161 177q414 332 1110 332h236v-272h-242q-381 0 -603 -48q-278 -61 -498 -226q-117 -88 -117 -143q0 -29 94 -29h1366v-9z" />
    <glyph glyph-name="uni06D3.fina" unicode="&#x6d3;" horiz-adv-x="1663" arabic-form="final" 
d="M1663 -162l-253 -263h-1169q-116 0 -141 14q-28 16 -29 48q-2 70 17 166q43 215 68 253q68 103 161 177q414 332 1110 332h236v-272h-242q-381 0 -603 -48q-278 -61 -498 -226q-117 -88 -117 -143q0 -29 94 -29h1366v-9zM1220 863q-11 -29 -26 -44q-11 -11 -34 -18
l-216 -66q20 36 35 49.5t54 24.5q-28 18 -40.5 33.5t-12.5 30.5q0 13 8 29.5t21 32.5q65 87 129 87q19 0 30.5 -12.5t11.5 -32.5q0 -16 -4.5 -27.5t-18.5 -34.5q-50 25 -68 25t-36 -9q-12 -6 -22 -16q0 -13 48 -40t69 -27q13 0 72 15z" />
    <glyph glyph-name="uni06AD.fina" unicode="&#x6ad;" horiz-adv-x="1108" arabic-form="final" 
d="M765 1038q0 -133 -78.5 -207.5t-219.5 -74.5q-39 0 -62.5 2t-77.5 12l12 64h18q99 0 182.5 27.5t83.5 64.5q0 14 -10 19.5t-40 8.5q-96 0 -96 84q0 60 23.5 133.5t66.5 148.5q28 46 57 68t87 40q-2 -39 -3 -85t-1 -81q-54 -15 -90 -42q-32 -24 -32 -42q0 -21 68 -30
q62 0 87 -25t25 -85zM1108 293h-671q-216 0 -311 74q-85 66 -85 205q0 93 28.5 182.5t97.5 213.5l60 -42q-39 -77 -50.5 -114.5t-11.5 -79.5q0 -96 71 -131.5t271 -35.5h481l-121 679l-64 42q0 59 18 119q23 76 78 181l46 -24q0 -6 -4 -32q0 -33 42 -64q37 -28 118 -62
q-9 -64 -26.5 -125t-39.5 -109l-36 14l109 -619v-272zM588 1724l-57 -96l-130 36l54 96zM763 1675l-57 -96l-130 36l54 96zM546 1587l-57 -96l-130 36l54 96z" />
    <glyph glyph-name="uni06AD.init" unicode="&#x6ad;" horiz-adv-x="738" arabic-form="initial" 
d="M738 293h-808v272h649q-39 47 -76 82q-30 28 -81 68q-57 44 -113 88l-32 -36q-89 88 -106 107q-50 57 -50 131q0 101 14 142q20 58 85 103q58 40 124 73q52 26 138 61q40 16 169 66v-238q-5 0 -84 -26q-98 -32 -156 -56q-84 -34 -84 -51q0 -9 71 -78q97 -94 163 -172
q109 -129 177 -257v-279zM328 1624l-57 -96l-130 36l54 96zM503 1575l-57 -96l-130 36l54 96zM286 1487l-57 -96l-130 36l54 96z" />
    <glyph glyph-name="uni06AD.medi" unicode="&#x6ad;" horiz-adv-x="738" arabic-form="medial" 
d="M738 293h-808v272h649q-39 47 -76 82q-30 28 -81 68q-57 44 -113 88l-32 -36q-89 88 -106 107q-50 57 -50 131q0 101 14 142q20 58 85 103q58 40 124 73q52 26 138 61q40 16 169 66v-238q-5 0 -84 -26q-98 -32 -156 -56q-84 -34 -84 -51q0 -9 71 -78q97 -94 163 -172
q109 -129 177 -257v-279zM328 1624l-57 -96l-130 36l54 96zM503 1575l-57 -96l-130 36l54 96zM286 1487l-57 -96l-130 36l54 96z" />
    <glyph glyph-name="uni06C7.fina" unicode="&#x6c7;" horiz-adv-x="924" arabic-form="final" 
d="M924 362q0 -172 -146 -340t-288 -168q-83 0 -181.5 53t-302.5 209l42 58q108 -72 177 -96q57 -20 129 -20q97 0 192 54q112 64 232 206q-42 -6 -70 -6q-99 0 -157.5 64.5t-58.5 175.5q0 150 69 289q75 151 171 151q80 0 136 -109t56 -263v-258zM804 565q-28 161 -114 161
q-31 0 -49.5 -24.5t-18.5 -53.5q0 -36 39.5 -59.5t104.5 -23.5h38zM829 1324q0 -17 -3 -35l-6 -36l-83 50q-50 -55 -68 -73q-74 -72 -124 -72h-73q53 25 124 81q64 51 97 90q-31 19 -47 40q-20 26 -20 57q0 66 38.5 116.5t83.5 50.5q26 0 47 -28t21 -68q0 -19 -5.5 -39.5
t-25.5 -75.5q16 -14 33 -27q11 -11 11 -31zM754 1437q0 27 -19 50t-37 23q-10 0 -15.5 -7t-5.5 -14q0 -22 25 -46l44 -34q8 20 8 28z" />
    <glyph glyph-name="uni06C6.fina" unicode="&#x6c6;" horiz-adv-x="924" arabic-form="final" 
d="M924 362q0 -172 -146 -340t-288 -168q-83 0 -181.5 53t-302.5 209l42 58q108 -72 177 -96q57 -20 129 -20q97 0 192 54q112 64 232 206q-42 -6 -70 -6q-99 0 -157.5 64.5t-58.5 175.5q0 150 69 289q75 151 171 151q80 0 136 -109t56 -263v-258zM804 565q-28 161 -114 161
q-31 0 -49.5 -24.5t-18.5 -53.5q0 -36 39.5 -59.5t104.5 -23.5h38zM862 1365l-136 -230h-96l-136 230h117l67 -120l67 120h117z" />
    <glyph glyph-name="uni06C8.fina" unicode="&#x6c8;" horiz-adv-x="924" arabic-form="final" 
d="M924 362q0 -172 -146 -340t-288 -168q-83 0 -181.5 53t-302.5 209l42 58q108 -72 177 -96q57 -20 129 -20q97 0 192 54q112 64 232 206q-42 -6 -70 -6q-99 0 -157.5 64.5t-58.5 175.5q0 150 69 289q75 151 171 151q80 0 136 -109t56 -263v-258zM804 565q-28 161 -114 161
q-31 0 -49.5 -24.5t-18.5 -53.5q0 -36 39.5 -59.5t104.5 -23.5h38zM699 1234q0 -71 -49 -172l-28 12q11 59 11 99q0 65 -17 196q-8 59 -23 131q-6 28 -6 37q0 30 56 136l29 -169q27 -157 27 -270z" />
    <glyph glyph-name="uni06CB.fina" unicode="&#x6cb;" horiz-adv-x="924" arabic-form="final" 
d="M924 362q0 -172 -146 -340t-288 -168q-83 0 -181.5 53t-302.5 209l42 58q108 -72 177 -96q57 -20 129 -20q97 0 192 54q112 64 232 206q-42 -6 -70 -6q-99 0 -157.5 64.5t-58.5 175.5q0 150 69 289q75 151 171 151q80 0 136 -109t56 -263v-258zM804 565q-28 161 -114 161
q-31 0 -49.5 -24.5t-18.5 -53.5q0 -36 39.5 -59.5t104.5 -23.5h38zM706 1576l-100 -208l-188 100l102 204zM900 1339l-110 -204l-142 80l-80 -158l-186 102l104 194l148 -74l84 162z" />
    <glyph glyph-name="uni06C5.fina" unicode="&#x6c5;" horiz-adv-x="924" arabic-form="final" 
d="M924 362q0 -160 -136 -330q-142 -178 -298 -178q-103 0 -257 97q-62 39 -227 165l42 58q108 -72 177 -96q57 -20 129 -20q140 0 281 114q-28 -6 -59 -6q-68 0 -145 33q-56 26 -85 26q-14 0 -58 -14l-14 14q46 77 106 77q36 0 99 -26q80 -33 145 -33q48 0 110 25
q19 21 44 50q-42 -6 -70 -6q-103 0 -161 70q-55 65 -55 170q0 150 69 289q75 151 171 151q98 0 152 -145q40 -109 40 -227v-258zM804 565q-28 161 -114 161q-30 0 -49 -23.5t-19 -54.5q0 -43 54 -66q40 -17 90 -17h38z" />
    <glyph glyph-name="uni06C9.fina" unicode="&#x6c9;" horiz-adv-x="924" arabic-form="final" 
d="M924 362q0 -172 -146 -340t-288 -168q-83 0 -181.5 53t-302.5 209l42 58q108 -72 177 -96q57 -20 129 -20q97 0 192 54q112 64 232 206q-42 -6 -70 -6q-99 0 -157.5 64.5t-58.5 175.5q0 150 69 289q75 151 171 151q80 0 136 -109t56 -263v-258zM804 565q-28 161 -114 161
q-31 0 -49.5 -24.5t-18.5 -53.5q0 -36 39.5 -59.5t104.5 -23.5h38zM862 1135h-117l-67 120l-67 -120h-117l136 230h96z" />
    <glyph glyph-name="uni06D0.fina" unicode="&#x6d0;" horiz-adv-x="1135" arabic-form="final" 
d="M1135 293h-85q-82 0 -82 -23q0 -2 49 -24.5t49 -59.5q0 -57 -16 -132q-17 -81 -46 -140q-73 -150 -666 -150q-160 0 -238 54q-90 62 -90 210q0 159 70 305q44 91 156 245l56 -42q-164 -233 -164 -362q0 -72 64 -116q61 -42 158 -42q594 0 594 85q0 14 -156 14h-97
q-71 8 -71 45q0 127 65 205t152 134q102 66 186 66h112v-272zM575 -267l-34 -70l-94 24l36 70zM601 -364l-34 -70l-94 24l36 70z" />
    <glyph glyph-name="uniFBE6" unicode="&#x6d0;" horiz-adv-x="556" arabic-form="initial" 
d="M556 293h-626v272h526q-11 68 -40 115q-15 26 -70 90l80 238q75 -85 102.5 -178t27.5 -276v-261zM355 123l-100 -208l-188 100l102 204zM302 -46l186 -96l-100 -208l-188 100z" />
    <glyph glyph-name="uniFBE7" unicode="&#x6d0;" horiz-adv-x="556" arabic-form="medial" 
d="M556 293h-626v272h526q-11 68 -40 115q-15 26 -70 90l80 238q75 -85 102.5 -178t27.5 -276v-261zM355 123l-100 -208l-188 100l102 204zM302 -46l186 -96l-100 -208l-188 100z" />
    <glyph glyph-name="uni066E.init" unicode="&#x649;" horiz-adv-x="556" arabic-form="initial" 
d="M556 293h-626v272h526q-11 68 -40 115q-15 26 -70 90l80 238q75 -85 102.5 -178t27.5 -276v-261z" />
    <glyph glyph-name="uni06CC.fina" unicode="&#x6cc;" horiz-adv-x="1135" arabic-form="final" 
d="M1135 293h-85q-37 0 -59.5 -6t-22.5 -17q0 -6 49 -25t49 -59q0 -55 -16.5 -132.5t-45.5 -139.5q-22 -48 -123 -110q-108 -66 -245 -110q-157 -50 -298 -50q-162 0 -245 75t-83 219q0 158 38 274q46 140 188 366l56 -42q-94 -160 -129 -255t-35 -187t59 -145t163 -53
q127 0 273 39q132 35 226.5 84.5t94.5 81.5q0 10 -56 12t-100 2q-106 0 -137 8t-31 37q0 54 19.5 114t46.5 92q66 80 156 136q101 63 181 63h112v-272z" />
    <glyph glyph-name="uni064A.init" unicode="&#x6cc;" horiz-adv-x="556" arabic-form="initial" 
d="M556 293h-626v272h526q-11 68 -40 115q-15 26 -70 90l80 238q75 -85 102.5 -178t27.5 -276v-261zM540 117l-110 -204l-142 80l-80 -158l-186 102l104 194l148 -74l84 162z" />
    <glyph glyph-name="uni064A.medi" unicode="&#x6cc;" horiz-adv-x="556" arabic-form="medial" 
d="M556 293h-626v272h526q-11 68 -40 115q-15 26 -70 90l80 238q75 -85 102.5 -178t27.5 -276v-261zM540 117l-110 -204l-142 80l-80 -158l-186 102l104 194l148 -74l84 162z" />
    <glyph glyph-name="uni0651064C" unicode="&#xfc5e;" arabic-form="isolated" 
d="M463 2005q0 -37 -11 -70t-33 -68q15 -12 23.5 -22.5t8.5 -23.5q0 -18 -1.5 -39.5t-5.5 -47.5l-86 67q-46 -54 -104 -84q-71 -36 -158 -36l36 60q20 37 20 66q0 22 -10 41t-29 19q-21 0 -39 -24l-26 -44q7 71 18 101q20 55 66 55q34 0 53 -33.5t19 -75.5q0 -17 -3.5 -34.5
t-11.5 -50.5q69 20 133 66q-32 32 -41 44q-18 24 -18 51q0 47 39 94q44 53 96 53q27 0 46 -19t19 -45zM433 1635q0 -75 -26 -123q-29 -54 -80 -54q-18 0 -33 6t-34 19q-20 -34 -39 -53q-32 -32 -67 -32q-42 0 -63 28t-21 78q0 26 7 51t20 58l21 8q0 -8 -2 -26t-2 -30
q0 -22 9 -39.5t27 -17.5q43 0 69 56q12 25 30 101l21 6q8 -49 13 -60q12 -31 40 -31q38 0 60 50q18 41 18 85l21 6q4 -19 7.5 -43.5t3.5 -42.5zM392 1945q0 24 -11.5 43t-32.5 19q-10 0 -16 -8.5t-6 -20.5q0 -18 18 -38q5 -6 35 -33q13 17 13 38z" />
    <glyph glyph-name="uni0651064D" unicode="&#xfc5f;" arabic-form="isolated" 
d="M433 1917q0 -76 -26 -124q-29 -53 -80 -53q-17 0 -33.5 6.5t-33.5 18.5q-19 -34 -39 -53q-32 -31 -67 -31q-42 0 -63 28t-21 77q0 25 8 54q5 18 19 54l21 8q0 -8 -2 -26t-2 -30q0 -23 8.5 -39.5t27.5 -16.5q43 0 69 56q13 27 30 100l21 6q9 -49 13 -60q12 -32 40 -32
q38 0 60 50q18 41 18 86l21 7q4 -24 7.5 -46t3.5 -40zM418 1721q0 -46 -52 -90q-89 -35 -290 -117q0 44 43 85q84 34 299 122zM418 1598q0 -47 -51 -92q-90 -36 -291 -117q0 43 43 84q84 35 299 125z" />
    <glyph glyph-name="uni0651064E" unicode="&#xfc60;" arabic-form="isolated" 
d="M418 1880q0 -46 -52 -92q-89 -35 -290 -115q0 42 45 83q82 34 297 124zM433 1635q0 -75 -26 -123q-29 -54 -80 -54q-17 0 -33.5 6.5t-33.5 18.5q-20 -34 -39 -53q-32 -32 -67 -32q-42 0 -63 28t-21 78q0 26 8 55q5 18 19 54l21 8q0 -8 -2 -26t-2 -30q0 -22 9 -39.5
t27 -17.5q43 0 69 56q12 25 30 101l21 6q8 -49 13 -60q12 -31 40 -31q38 0 60 50q18 41 18 85l21 6q4 -19 7.5 -43.5t3.5 -42.5z" />
    <glyph glyph-name="uni0651064F" unicode="&#xfc61;" arabic-form="isolated" 
d="M433 1742q-35 0 -74 9q-8 2 -43 12q-57 -49 -80 -63q-60 -38 -116 -38q-14 0 -27.5 4.5t-28.5 12.5q76 34 107 49q48 23 106 56q-23 22 -34 37q-17 23 -17 46q0 43 35.5 85.5t80.5 42.5q29 0 52.5 -20.5t23.5 -49.5q0 -21 -10 -44q-3 -7 -23 -42q32 -15 38 -26
q10 -17 10 -71zM433 1635q0 -75 -26 -123q-29 -54 -80 -54q-17 0 -33.5 6.5t-33.5 18.5q-20 -34 -39 -53q-32 -32 -67 -32q-42 0 -63 28t-21 78q0 26 8 55q5 18 19 54l21 8q0 -8 -2 -26t-2 -30q0 -22 9 -39.5t27 -17.5q43 0 69 56q12 25 30 100l21 7q9 -50 13 -61
q12 -31 40 -31q38 0 60 50q18 41 18 86l21 6q4 -20 7.5 -44.5t3.5 -41.5zM352 1894q0 21 -15 41t-37 20q-7 0 -10 -7t-3 -16q0 -21 10 -35.5t45 -33.5q3 7 6.5 16t3.5 15z" />
    <glyph glyph-name="uni06510650" unicode="&#xfc62;" arabic-form="isolated" 
d="M433 1820q0 -75 -26 -122q-29 -53 -80 -53q-18 0 -33 6t-34 19q-20 -34 -39 -53q-32 -32 -67 -32q-42 0 -63 28t-21 78q0 25 8 54q5 18 19 53l21 9q0 -9 -2 -27t-2 -30q0 -22 9 -38.5t27 -16.5q43 0 69 55q12 26 30 100l21 6q8 -49 13 -60q12 -31 40 -31q38 0 60 50
q18 41 18 85l21 6q4 -19 7.5 -43.5t3.5 -42.5zM418 1606q0 -47 -51 -92q-90 -36 -291 -116q0 43 44 83q83 35 298 125z" />
    <glyph glyph-name="uniFE80" unicode="&#x621;" horiz-adv-x="960" arabic-form="isolated" 
d="M864 680l-80 -230q-155 -38 -254 -86q-92 -45 -169 -114q-50 -45 -147 -156l-60 22q0 66 34 133q26 52 92 137q-94 94 -124 137t-30 85q0 56 77 195t132.5 190t130.5 51q71 0 124.5 -30t117.5 -108l-134 -222q-47 53 -88 77.5t-78 24.5q-31 0 -55.5 -17.5t-24.5 -40.5
q0 -32 41.5 -66.5t140.5 -85.5q126 60 189 77.5t165 26.5z" />
    <glyph glyph-name="uni0622.fina" unicode="&#x622;" horiz-adv-x="519" arabic-form="final" 
d="M519 293h-140q-117 0 -169 96q-58 106 -58 357v285q0 97 -27 151q-13 26 -60 75l108 250q58 -80 81 -158q27 -91 27 -232v-197q0 -209 28 -290q22 -65 70 -65h140v-272zM427 1656q-44 -49 -85 -69t-101 -20q-34 0 -66.5 7t-78.5 26q-29 13 -48.5 18.5t-36.5 5.5
q-14 0 -58 -14l-14 14q46 77 106 77q36 0 99 -26q41 -17 77 -25t68 -8q30 0 52 5t68 24z" />
    <glyph glyph-name="uni0623.fina" unicode="&#x623;" horiz-adv-x="480" arabic-form="final" 
d="M480 293h-140q-117 0 -169 96q-58 106 -58 357v285q0 97 -27 151q-13 26 -60 75l107 249q59 -79 82 -157q27 -91 27 -232v-197q0 -209 28 -290q22 -65 70 -65h140v-272zM269 1635q-10 -30 -25 -45q-11 -11 -34 -18l-216 -66q20 36 35.5 48.5t52.5 26.5q-28 18 -40.5 33.5
t-12.5 30.5q0 13 8 29.5t21 32.5q65 87 129 87q19 0 30.5 -12.5t11.5 -32.5q0 -16 -4.5 -27.5t-18.5 -34.5q-50 25 -68 25t-36 -9q-12 -6 -22 -16q0 -13 48 -40t69 -27q13 0 72 15z" />
    <glyph glyph-name="uni0624.fina" unicode="&#x624;" horiz-adv-x="924" arabic-form="final" 
d="M924 362q0 -172 -146 -340t-288 -168q-83 0 -181.5 53t-302.5 209l42 58q108 -72 177 -96q57 -20 129 -20q97 0 192 54q112 64 232 206q-42 -6 -70 -6q-99 0 -157.5 64.5t-58.5 175.5q0 150 69 289q75 151 171 151q80 0 136 -109t56 -263v-258zM804 565q-28 161 -114 161
q-31 0 -49.5 -24.5t-18.5 -53.5q0 -36 39.5 -59.5t104.5 -23.5h38zM546 1195q-9 -32 -24 -47q-11 -11 -34 -18l-216 -66q20 36 35 49.5t52 27.5q-28 18 -40.5 33.5t-12.5 30.5q0 13 8 29.5t21 32.5q65 87 129 87q19 0 30.5 -12.5t11.5 -32.5q0 -16 -4.5 -27.5t-18.5 -34.5
q-50 25 -68 25t-36 -9q-12 -6 -22 -16q0 -13 48 -40t69 -27q13 0 72 15z" />
    <glyph glyph-name="uni0625.fina" unicode="&#x625;" horiz-adv-x="480" arabic-form="final" 
d="M480 293h-140q-117 0 -169 96q-58 106 -58 357v285q0 97 -27 151q-13 26 -60 75l108 250q58 -80 81 -158q27 -91 27 -232v-197q0 -209 28 -290q22 -65 70 -65h140v-272zM428 -50q-9 -32 -24 -47q-11 -11 -34 -18l-216 -66q20 36 35 49.5t52 27.5q-28 18 -40.5 33.5
t-12.5 30.5q0 13 8 29.5t21 32.5q65 87 129 87q19 0 30.5 -12.5t11.5 -32.5q0 -16 -4.5 -27.5t-18.5 -34.5q-50 25 -68 25t-36 -9q-12 -6 -22 -16q0 -13 48 -40t69 -27q13 0 72 15z" />
    <glyph glyph-name="uni0626.fina" unicode="&#x626;" horiz-adv-x="1182" arabic-form="final" 
d="M1182 293h-103q-45 0 -64.5 -2t-19.5 -13q29 -17 54.5 -23.5t33.5 -17t8 -33.5q0 -71 -40.5 -169.5t-79.5 -122.5q-37 -31 -219.5 -71.5t-314.5 -40.5q-188 0 -304 78t-116 204q0 122 51 233q62 134 229 339l60 -42q-105 -127 -145.5 -207t-40.5 -157q0 -107 88.5 -158.5
t273.5 -51.5q96 0 266 35t170 61q0 12 -65 22t-143 10q-114 0 -114 50q0 23 27 82q19 41 39 82q37 83 141.5 134t218.5 51h109v-272zM460 915q-9 -32 -24 -47q-11 -11 -34 -18l-216 -66q20 36 35 49.5t52 27.5q-28 18 -40.5 33.5t-12.5 30.5q0 13 8 29.5t21 32.5
q65 87 129 87q19 0 30.5 -12.5t11.5 -32.5q0 -16 -4.5 -27.5t-18.5 -34.5q-50 25 -68 25t-36 -9q-12 -6 -22 -16q0 -13 48 -40t69 -27q13 0 72 15z" />
    <glyph glyph-name="uni0626.init" unicode="&#x626;" horiz-adv-x="556" arabic-form="initial" 
d="M556 293h-626v272h526q-11 68 -40 115q-15 26 -70 90l80 238q75 -85 102.5 -178t27.5 -276v-261zM526 1195q-9 -32 -24 -47q-11 -11 -34 -18l-216 -66q20 36 35 49.5t52 27.5q-28 18 -40.5 33.5t-12.5 30.5q0 13 8 29.5t21 32.5q65 87 129 87q19 0 30.5 -12.5t11.5 -32.5
q0 -16 -4.5 -27.5t-18.5 -34.5q-50 25 -68 25t-36 -9q-12 -6 -22 -16q0 -13 48 -40t69 -27q13 0 72 15z" />
    <glyph glyph-name="uni0626.medi" unicode="&#x626;" horiz-adv-x="556" arabic-form="medial" 
d="M556 293h-626v272h526q-11 68 -40 115q-15 26 -70 90l80 238q75 -85 102.5 -178t27.5 -276v-261zM526 1195q-9 -32 -24 -47q-11 -11 -34 -18l-216 -66q20 36 35 49.5t52 27.5q-28 18 -40.5 33.5t-12.5 30.5q0 13 8 29.5t21 32.5q65 87 129 87q19 0 30.5 -12.5t11.5 -32.5
q0 -16 -4.5 -27.5t-18.5 -34.5q-50 25 -68 25t-36 -9q-12 -6 -22 -16q0 -13 48 -40t69 -27q13 0 72 15z" />
    <glyph glyph-name="uni0627.fina" unicode="&#x627;" horiz-adv-x="480" arabic-form="final" 
d="M480 293h-140q-117 0 -169 96q-58 106 -58 357v285q0 97 -27 151q-13 26 -60 75l108 250q58 -80 81 -158q27 -91 27 -232v-197q0 -209 28 -290q22 -65 70 -65h140v-272z" />
    <glyph glyph-name="uni0628.fina" unicode="&#x628;" horiz-adv-x="1330" arabic-form="final" 
d="M1330 293h-839q-121 0 -160.5 4t-85.5 21q-82 28 -135 114t-53 192q0 41 4 73.5t16 76.5q17 65 38 109t74 119l56 -40q-43 -79 -58.5 -125t-15.5 -91q0 -57 36.5 -102.5t95.5 -59.5q35 -9 91.5 -14t118.5 -5h723q-28 76 -46 108q-21 38 -68 97l90 232q75 -107 98 -196
q20 -78 20 -230v-283zM939 82l-120 -224l-232 126l120 228z" />
    <glyph glyph-name="uni0628.init" unicode="&#x628;" horiz-adv-x="556" arabic-form="initial" 
d="M556 293h-626v272h526q-11 68 -40 115q-15 26 -70 90l80 238q75 -85 102.5 -178t27.5 -276v-261zM454 82l-120 -224l-232 126l120 228z" />
    <glyph glyph-name="uni0628.medi" unicode="&#x628;" horiz-adv-x="556" arabic-form="medial" 
d="M556 293h-626v272h526q-11 68 -40 115q-15 26 -70 90l80 238q75 -85 102.5 -178t27.5 -276v-261zM454 82l-120 -224l-232 126l120 228z" />
    <glyph glyph-name="uni0629.fina" unicode="&#x629;" horiz-adv-x="850" arabic-form="final" 
d="M619 1695l-110 -186l-142 80l-80 -158l-186 102l104 176l148 -74l87 153zM850 293h-131q-36 0 -66 15q-58 29 -98 106q-54 106 -70 290q-68 -84 -106 -119q-55 -51 -92 -51q-19 0 -48 6l-122 24q-78 16 -96 23t-18 25q0 27 69.5 170.5t100.5 177.5q25 27 89 70
q38 26 108 67l53 31q-3 14 -4.5 28.5t-1.5 27.5q0 38 17.5 95.5t62.5 142.5l96 -624q23 -147 60 -199q24 -34 66 -34h131v-272zM461 858l-20 120q-32 -15 -50 -24q-55 -29 -88 -54q-24 -20 -40 -37q-20 -22 -20 -33q0 -14 35 -22t69 -8q22 0 46 12.5t68 45.5z" />
    <glyph glyph-name="uni062A.fina" unicode="&#x62a;" horiz-adv-x="1330" arabic-form="final" 
d="M977 1242l-110 -204l-142 80l-80 -158l-186 102l104 194l148 -74l84 162zM1330 293h-839q-121 0 -160.5 4t-85.5 21q-82 28 -135 114t-53 192q0 41 4 73.5t16 76.5q17 65 38 109t74 119l56 -40q-43 -79 -58.5 -125t-15.5 -91q0 -57 36.5 -102.5t95.5 -59.5
q35 -9 91.5 -14t118.5 -5h723q-28 76 -46 108q-21 38 -68 97l90 232q75 -107 98 -196q20 -78 20 -230v-283z" />
    <glyph glyph-name="uni062A.init" unicode="&#x62a;" horiz-adv-x="556" arabic-form="initial" 
d="M540 1362l-110 -204l-142 80l-80 -158l-186 102l104 194l148 -74l84 162zM556 293h-626v272h526q-11 68 -40 115q-15 26 -70 90l80 238q75 -85 102.5 -178t27.5 -276v-261z" />
    <glyph glyph-name="uni062A.medi" unicode="&#x62a;" horiz-adv-x="556" arabic-form="medial" 
d="M540 1362l-110 -204l-142 80l-80 -158l-186 102l104 194l148 -74l84 162zM556 293h-626v272h526q-11 68 -40 115q-15 26 -70 90l80 238q75 -85 102.5 -178t27.5 -276v-261z" />
    <glyph glyph-name="uni062B.fina" unicode="&#x62b;" horiz-adv-x="1330" arabic-form="final" 
d="M781 1473l-100 -208l-188 100l102 204zM975 1236l-110 -204l-142 80l-80 -158l-186 102l104 194l148 -74l84 162zM1330 294h-846q-134 0 -200 16t-118 58q-50 44 -78 112t-28 150q0 94 28.5 174.5t101.5 197.5l56 -36q-42 -86 -57 -130.5t-15 -85.5q0 -97 79.5 -140.5
t254.5 -43.5h726q-22 71 -40.5 106.5t-71.5 101.5l88 230q40 -55 56.5 -87t34 -89.5t23.5 -111.5t6 -158v-264z" />
    <glyph glyph-name="uni062B.init" unicode="&#x62b;" horiz-adv-x="556" arabic-form="initial" 
d="M346 1599l-100 -208l-188 100l102 204zM540 1362l-110 -204l-142 80l-80 -158l-186 102l104 194l148 -74l84 162zM556 293h-626v272h526q-11 68 -40 115q-15 26 -70 90l80 238q75 -85 102.5 -178t27.5 -276v-261z" />
    <glyph glyph-name="uni062B.medi" unicode="&#x62b;" horiz-adv-x="556" arabic-form="medial" 
d="M346 1599l-100 -208l-188 100l102 204zM540 1362l-110 -204l-142 80l-80 -158l-186 102l104 194l148 -74l84 162zM556 293h-626v272h526q-11 68 -40 115q-15 26 -70 90l80 238q75 -85 102.5 -178t27.5 -276v-261z" />
    <glyph glyph-name="uni062C.fina" unicode="&#x62c;" horiz-adv-x="1144" arabic-form="final" 
d="M1144 293h-156q-176 0 -240 51t-64 192q0 63 8 121q3 20 16 95q-228 -53 -368 -183q-144 -134 -144 -305q0 -200 171.5 -308t494.5 -108q95 0 272 18l18 -32l-380 -244l-96 -2q-293 0 -451.5 148.5t-158.5 423.5q0 209 95.5 387.5t244.5 258.5h-22q-93 0 -153.5 -17.5
t-182.5 -80.5q45 372 364 372q37 0 141 -11.5t185 -17.5q152 -11 298 -11l-60 -242q-59 0 -101 -7q-56 -12 -101 -21q-3 -19 -5.5 -43t-2.5 -37q0 -71 47 -98t174 -27h157v-272zM684 276l-122 -224l-228 128l120 222z" />
    <glyph glyph-name="uni062C.init" unicode="&#x62c;" horiz-adv-x="1072" arabic-form="initial" 
d="M1072 293h-1142v272h711q-121 125 -224 180q-91 49 -178 49q-26 0 -47.5 -2.5t-62.5 -11.5q55 126 122.5 186t153.5 60q66 0 127 -32t137 -103q60 -56 170 -175q75 -84 114.5 -109t118.5 -42v-272zM702 74l-126 -226l-230 124l123 226z" />
    <glyph glyph-name="uni062C.medi" unicode="&#x62c;" horiz-adv-x="1072" arabic-form="medial" 
d="M1072 293h-1142v272h711q-121 125 -224 180q-91 49 -178 49q-26 0 -47.5 -2.5t-62.5 -11.5q55 126 122.5 186t153.5 60q66 0 127 -32t137 -103q60 -56 170 -175q75 -84 114.5 -109t118.5 -42v-272zM702 74l-126 -226l-230 124l123 226z" />
    <glyph glyph-name="uni062D.fina" unicode="&#x62d;" horiz-adv-x="1144" arabic-form="final" 
d="M1144 293h-156q-176 0 -240 51t-64 192q0 63 8 121q3 20 16 95q-228 -53 -368 -183q-144 -134 -144 -305q0 -200 171.5 -308t494.5 -108q95 0 272 18l18 -32l-380 -244l-96 -2q-293 0 -451.5 148.5t-158.5 423.5q0 209 95.5 387.5t244.5 258.5h-22q-93 0 -153.5 -17.5
t-182.5 -80.5q45 372 364 372q37 0 141 -11.5t185 -17.5q152 -11 298 -11l-60 -242q-59 0 -101 -7q-56 -12 -101 -21q-3 -19 -5.5 -43t-2.5 -37q0 -71 47 -98t174 -27h157v-272z" />
    <glyph glyph-name="uni062D.init" unicode="&#x62d;" horiz-adv-x="1072" arabic-form="initial" 
d="M1072 293h-1142v272h711q-121 125 -224 180q-91 49 -178 49q-26 0 -47.5 -2.5t-62.5 -11.5q55 126 122.5 186t153.5 60q66 0 127 -32t137 -103q60 -56 170 -175q75 -84 114.5 -109t118.5 -42v-272z" />
    <glyph glyph-name="uni062D.medi" unicode="&#x62d;" horiz-adv-x="1072" arabic-form="medial" 
d="M1072 293h-1142v272h711q-121 125 -224 180q-91 49 -178 49q-26 0 -47.5 -2.5t-62.5 -11.5q55 126 122.5 186t153.5 60q66 0 127 -32t137 -103q60 -56 170 -175q75 -84 114.5 -109t118.5 -42v-272z" />
    <glyph glyph-name="uni062E.fina" unicode="&#x62e;" horiz-adv-x="1144" arabic-form="final" 
d="M712 1403l-120 -224l-234 122l124 226zM1144 293h-156q-176 0 -240 51t-64 192q0 63 8 121q3 20 16 95q-228 -53 -368 -183q-144 -134 -144 -305q0 -200 171.5 -308t494.5 -108q95 0 272 18l18 -32l-380 -244l-96 -2q-293 0 -451.5 148.5t-158.5 423.5q0 209 95.5 387.5
t244.5 258.5h-22q-93 0 -153.5 -17.5t-182.5 -80.5q45 372 364 372q37 0 141 -11.5t185 -17.5q152 -11 298 -11l-60 -242q-59 0 -101 -7q-56 -12 -101 -21q-3 -19 -5.5 -43t-2.5 -37q0 -71 47 -98t174 -27h157v-272z" />
    <glyph glyph-name="uni062E.init" unicode="&#x62e;" horiz-adv-x="1072" arabic-form="initial" 
d="M670 1358l-120 -224l-234 122l121 226zM1072 293h-1142v272h711q-121 125 -224 180q-91 49 -178 49q-26 0 -47.5 -2.5t-62.5 -11.5q55 126 122.5 186t153.5 60q66 0 127 -32t137 -103q60 -56 170 -175q75 -84 114.5 -109t118.5 -42v-272z" />
    <glyph glyph-name="uni062E.medi" unicode="&#x62e;" horiz-adv-x="1072" arabic-form="medial" 
d="M670 1358l-120 -224l-234 122l121 226zM1072 293h-1142v272h711q-121 125 -224 180q-91 49 -178 49q-26 0 -47.5 -2.5t-62.5 -11.5q55 126 122.5 186t153.5 60q66 0 127 -32t137 -103q60 -56 170 -175q75 -84 114.5 -109t118.5 -42v-272z" />
    <glyph glyph-name="uni062F.fina" unicode="&#x62f;" horiz-adv-x="702" arabic-form="final" 
d="M702 293h-453q-66 0 -101 28q-43 34 -43 111q0 44 4.5 95t13.5 103l38 2q8 -35 35.5 -51t66.5 -16h344q-23 147 -80 235q-47 73 -131 126l72 312q130 -97 184 -250q50 -141 50 -374v-321z" />
    <glyph glyph-name="uni0630.fina" unicode="&#x630;" horiz-adv-x="702" arabic-form="final" 
d="M531 1607l-120 -224l-234 122l125 226zM702 293h-453q-66 0 -101 28q-43 34 -43 111q0 44 4.5 95t13.5 103l38 2q8 -35 35.5 -51t66.5 -16h344q-23 147 -80 235q-47 73 -131 126l72 312q130 -97 184 -250q50 -141 50 -374v-321z" />
    <glyph glyph-name="uni0631.fina" unicode="&#x631;" horiz-adv-x="886" arabic-form="final" 
d="M886 270q0 -61 -70 -161.5t-164 -174.5q-104 -82 -178 -82q-88 0 -189 50q-88 43 -275 172l42 62q90 -60 145 -81t119 -21q69 0 138 39t188 145q166 148 166 228q0 40 -32 105q-36 74 -88 123l56 270q68 -70 105 -161t37 -207v-306z" />
    <glyph glyph-name="uni0632.fina" unicode="&#x632;" horiz-adv-x="886" arabic-form="final" 
d="M835 1295l-120 -224l-234 122l119 226zM886 270q0 -61 -70 -161.5t-164 -174.5q-104 -82 -178 -82q-88 0 -189 50q-88 43 -275 172l42 62q90 -60 145 -81t119 -21q69 0 138 39t188 145q166 148 166 228q0 40 -32 105q-36 74 -88 123l56 270q68 -70 105 -161t37 -207v-306
z" />
    <glyph glyph-name="uni0633.fina" unicode="&#x633;" horiz-adv-x="1842" arabic-form="final" 
d="M1842 294q-110 0 -157 10t-175 56q-58 -41 -103.5 -54t-136.5 -13h-163q0 -232 -148 -334q-129 -89 -389 -89q-243 0 -374.5 88.5t-131.5 251.5q0 139 42 254q46 127 180 330l60 -42q-99 -169 -129.5 -245t-30.5 -157q0 -105 112.5 -171.5t295.5 -66.5q180 0 303 69
t123 169q0 62 -21.5 123t-92.5 195l88 270q71 -120 94 -198q20 -68 20 -175h92q151 0 210.5 35.5t59.5 127.5q0 40 7.5 58.5t35.5 38.5l47 33q2 -19 3 -51.5t1 -42.5q0 -55 -16 -146q46 -15 92.5 -27.5t87.5 -18.5q0 36 -25 88t-25 68q0 12 3.5 23t16.5 29l94 134
q27 -63 38.5 -114.5t11.5 -128.5v-377z" />
    <glyph glyph-name="uni0633.init" unicode="&#x633;" horiz-adv-x="1246" arabic-form="initial" 
d="M1246 293q-112 0 -186 16t-146 51q-58 -41 -103.5 -54t-136.5 -13h-163q-67 0 -106 35t-70 116q-55 -84 -123 -120q-58 -31 -139 -31h-143v272h143q105 0 175 59q91 77 91 234l66 -10q-2 -32 -4 -73t-2 -91q0 -51 35 -85t80 -34h123q122 0 174 34q63 41 63 153
q0 24 15 43q9 11 37 33l38 30q2 -19 3 -51.5t1 -42.5q0 -55 -16 -146q37 -18 83 -31t97 -20q0 34 -25 88t-25 73q0 26 7 40q2 5 22 31l85 115q27 -63 38.5 -114.5t11.5 -128.5v-378z" />
    <glyph glyph-name="uni0633.medi" unicode="&#x633;" horiz-adv-x="1246" arabic-form="medial" 
d="M1246 293q-112 0 -186 16t-146 51q-58 -41 -103.5 -54t-136.5 -13h-163q-67 0 -106 35t-70 116q-55 -84 -123 -120q-58 -31 -139 -31h-143v272h143q105 0 175 59q91 77 91 234l66 -10q-2 -32 -4 -73t-2 -91q0 -51 35 -85t80 -34h123q122 0 174 34q63 41 63 153
q0 24 15 43q9 11 37 33l38 30q2 -19 3 -51.5t1 -42.5q0 -55 -16 -146q37 -18 83 -31t97 -20q0 34 -25 88t-25 73q0 26 7 40q2 5 22 31l85 115q27 -63 38.5 -114.5t11.5 -128.5v-378z" />
    <glyph glyph-name="uni0634.fina" unicode="&#x634;" horiz-adv-x="1842" arabic-form="final" 
d="M1566 1489l-100 -208l-188 100l102 204zM1760 1252l-110 -204l-142 80l-80 -158l-186 102l104 194l148 -74l84 162zM1842 294q-110 0 -157 10t-175 56q-58 -41 -103.5 -54t-136.5 -13h-163q0 -232 -148 -334q-129 -89 -389 -89q-243 0 -374.5 88.5t-131.5 251.5
q0 139 42 254q46 127 180 330l60 -42q-99 -169 -129.5 -245t-30.5 -157q0 -105 112.5 -171.5t295.5 -66.5q180 0 303 69t123 169q0 62 -21.5 123t-92.5 195l88 270q71 -120 94 -198q20 -68 20 -175h92q151 0 210.5 35.5t59.5 127.5q0 40 7.5 58.5t35.5 38.5l47 33
q2 -19 3 -51.5t1 -42.5q0 -55 -16 -146q46 -15 92.5 -27.5t87.5 -18.5q0 36 -25 88t-25 68q0 12 3.5 23t16.5 29l94 134q27 -63 38.5 -114.5t11.5 -128.5v-377z" />
    <glyph glyph-name="uni0634.init" unicode="&#x634;" horiz-adv-x="1246" arabic-form="initial" 
d="M936 1489l-100 -208l-188 100l102 204zM1130 1252l-110 -204l-142 80l-87 -158l-179 102l104 194l148 -74l84 162zM1246 293q-112 0 -186 16t-146 51q-58 -41 -103.5 -54t-136.5 -13h-163q-67 0 -106 35t-70 116q-55 -84 -123 -120q-58 -31 -139 -31h-143v272h143
q105 0 175 59q91 77 91 234l66 -10q-2 -32 -4 -73t-2 -91q0 -51 35 -85t80 -34h123q122 0 174 34q63 41 63 153q0 24 15 43q9 11 37 33l38 30q2 -19 3 -51.5t1 -42.5q0 -55 -16 -146q37 -18 83 -31t97 -20q0 34 -25 88t-25 73q0 26 7 40q2 5 22 31l85 115
q27 -63 38.5 -114.5t11.5 -128.5v-378z" />
    <glyph glyph-name="uni0634.medi" unicode="&#x634;" horiz-adv-x="1246" arabic-form="medial" 
d="M936 1489l-100 -208l-188 100l102 204zM1130 1252l-110 -204l-142 80l-87 -158l-179 102l104 194l148 -74l84 162zM1246 293q-112 0 -186 16t-146 51q-58 -41 -103.5 -54t-136.5 -13h-163q-67 0 -106 35t-70 116q-55 -84 -123 -120q-58 -31 -139 -31h-143v272h143
q105 0 175 59q91 77 91 234l66 -10q-2 -32 -4 -73t-2 -91q0 -51 35 -85t80 -34h123q122 0 174 34q63 41 63 153q0 24 15 43q9 11 37 33l38 30q2 -19 3 -51.5t1 -42.5q0 -55 -16 -146q37 -18 83 -31t97 -20q0 34 -25 88t-25 73q0 26 7 40q2 5 22 31l85 115
q27 -63 38.5 -114.5t11.5 -128.5v-378z" />
    <glyph glyph-name="uni0635.fina" unicode="&#x635;" horiz-adv-x="2176" arabic-form="final" 
d="M2176 293h-1069q0 -233 -148 -335q-128 -88 -389 -88q-243 0 -374.5 88.5t-131.5 251.5q0 139 42 254q46 127 180 330l60 -42q-99 -169 -129.5 -245t-30.5 -157q0 -105 112.5 -171.5t295.5 -66.5q180 0 303 69t123 169q0 62 -21.5 123t-92.5 195l88 270q55 -106 62 -122
q29 -61 40.5 -114t11.5 -137q65 0 118 33q6 4 99 70l358 256q84 59 126 80q58 28 117 28q112 0 176 -79q74 -91 74 -277v-383zM2044 667q0 38 -62 67t-149 29q-66 0 -148.5 -42.5t-239.5 -155.5h262q337 0 337 102z" />
    <glyph glyph-name="uni0635.init" unicode="&#x635;" horiz-adv-x="1580" arabic-form="initial" 
d="M1580 293h-1059q-71 0 -113.5 35.5t-72.5 115.5q-64 -89 -122 -121q-53 -29 -140 -29l-143 -1v272l143 1q116 0 176 58q70 68 90 234l68 -10q-3 -36 -4 -58q-4 -66 -4 -106q0 -57 30 -88t79 -31t90.5 20t130.5 83l358 256q63 45 95 64q73 44 141 44q112 0 179 -79
q78 -92 78 -277v-383zM1440 667q0 45 -71 73q-59 23 -132 23q-66 0 -148.5 -42.5t-239.5 -155.5h262q329 0 329 102z" />
    <glyph glyph-name="uni0635.medi" unicode="&#x635;" horiz-adv-x="1580" arabic-form="medial" 
d="M1580 293h-1059q-71 0 -113.5 35.5t-72.5 115.5q-64 -89 -122 -121q-53 -29 -140 -29l-143 -1v272l143 1q116 0 176 58q70 68 90 234l68 -10q-3 -36 -4 -58q-4 -66 -4 -106q0 -57 30 -88t79 -31t90.5 20t130.5 83l358 256q63 45 95 64q73 44 141 44q112 0 179 -79
q78 -92 78 -277v-383zM1440 667q0 45 -71 73q-59 23 -132 23q-66 0 -148.5 -42.5t-239.5 -155.5h262q329 0 329 102z" />
    <glyph glyph-name="uni0636.fina" unicode="&#x636;" horiz-adv-x="2176" arabic-form="final" 
d="M1658 1367l-120 -224l-234 122l121 226zM2176 293h-1069q0 -233 -148 -335q-128 -88 -389 -88q-243 0 -374.5 88.5t-131.5 251.5q0 139 42 254q46 127 180 330l60 -42q-99 -169 -129.5 -245t-30.5 -157q0 -105 112.5 -171.5t295.5 -66.5q180 0 303 69t123 169
q0 62 -21.5 123t-92.5 195l88 270q55 -106 62 -122q29 -61 40.5 -114t11.5 -137q65 0 118 33q6 4 99 70l358 256q84 59 126 80q58 28 117 28q112 0 176 -79q74 -91 74 -277v-383zM2044 667q0 38 -62 67t-149 29q-66 0 -148.5 -42.5t-239.5 -155.5h262q337 0 337 102z" />
    <glyph glyph-name="uni0636.init" unicode="&#x636;" horiz-adv-x="1580" arabic-form="initial" 
d="M1082 1367l-120 -224l-234 122l121 226zM1580 293h-1059q-71 0 -113.5 35.5t-72.5 115.5q-64 -89 -122 -121q-53 -29 -140 -29l-143 -1v272l143 1q116 0 176 58q70 68 90 234l68 -10q-3 -36 -4 -58q-4 -66 -4 -106q0 -57 30 -88t79 -31t90.5 20t130.5 83l358 256
q63 45 95 64q73 44 141 44q112 0 179 -79q78 -92 78 -277v-383zM1440 667q0 45 -71 73q-59 23 -132 23q-66 0 -148.5 -42.5t-239.5 -155.5h262q329 0 329 102z" />
    <glyph glyph-name="uni0636.medi" unicode="&#x636;" horiz-adv-x="1580" arabic-form="medial" 
d="M1082 1367l-120 -224l-234 122l121 226zM1580 293h-1059q-71 0 -113.5 35.5t-72.5 115.5q-64 -89 -122 -121q-53 -29 -140 -29l-143 -1v272l143 1q116 0 176 58q70 68 90 234l68 -10q-3 -36 -4 -58q-4 -66 -4 -106q0 -57 30 -88t79 -31t90.5 20t130.5 83l358 256
q63 45 95 64q73 44 141 44q112 0 179 -79q78 -92 78 -277v-383zM1440 667q0 45 -71 73q-59 23 -132 23q-66 0 -148.5 -42.5t-239.5 -155.5h262q329 0 329 102z" />
    <glyph glyph-name="uni0637.fina" unicode="&#x637;" horiz-adv-x="1072" arabic-form="final" 
d="M1072 293h-1142v272h133q24 0 135 83q37 27 107 84q0 123 -9 208t-29 177q-5 22 -54 217l-58 36q23 105 38 150.5t58 143.5l46 -18q0 -6 -4 -26q0 -35 99 -83q33 -16 99 -41q-10 -78 -32 -146q-11 -34 -40 -106l-36 12q31 -142 41.5 -209.5t10.5 -120.5v-11
q0 -29 -1.5 -45.5t-8.5 -51.5q52 38 105 76q81 57 145 92q84 46 128 46q118 0 189 -61q80 -69 80 -199v-479zM933 667q0 35 -74 65.5t-130 30.5q-66 0 -148.5 -42.5t-239.5 -155.5h262q330 0 330 102z" />
    <glyph glyph-name="uni0637.init" unicode="&#x637;" horiz-adv-x="1072" arabic-form="initial" 
d="M1072 293h-1142v272h133q24 0 135 83q37 27 107 84q0 123 -9 208t-29 177q-5 22 -54 217l-58 36q23 105 38 150.5t58 143.5l46 -18q0 -6 -4 -26q0 -35 99 -83q33 -16 99 -41q-10 -78 -32 -146q-11 -34 -40 -106l-36 12q31 -142 41.5 -209.5t10.5 -120.5v-11
q0 -29 -1.5 -45.5t-8.5 -51.5q52 38 105 76q81 57 145 92q84 46 128 46q118 0 189 -61q80 -69 80 -199v-479zM933 667q0 35 -74 65.5t-130 30.5q-66 0 -148.5 -42.5t-239.5 -155.5h262q330 0 330 102z" />
    <glyph glyph-name="uni0637.medi" unicode="&#x637;" horiz-adv-x="1072" arabic-form="medial" 
d="M1072 293h-1142v272h133q24 0 135 83q37 27 107 84q0 123 -9 208t-29 177q-5 22 -54 217l-58 36q23 105 38 150.5t58 143.5l46 -18q0 -6 -4 -26q0 -35 99 -83q33 -16 99 -41q-10 -78 -32 -146q-11 -34 -40 -106l-36 12q31 -142 41.5 -209.5t10.5 -120.5v-11
q0 -29 -1.5 -45.5t-8.5 -51.5q52 38 105 76q81 57 145 92q84 46 128 46q118 0 189 -61q80 -69 80 -199v-479zM933 667q0 35 -74 65.5t-130 30.5q-66 0 -148.5 -42.5t-239.5 -155.5h262q330 0 330 102z" />
    <glyph glyph-name="uni0638.fina" unicode="&#x638;" horiz-adv-x="1072" arabic-form="final" 
d="M916 1367l-120 -224l-234 122l121 226zM1072 293h-1142v272h133q24 0 135 83q37 27 107 84q0 123 -9 208t-29 177q-5 22 -54 217l-58 36q23 105 38 150.5t58 143.5l46 -18q0 -6 -4 -26q0 -35 99 -83q33 -16 99 -41q-10 -78 -32 -146q-11 -34 -40 -106l-36 12
q31 -142 41.5 -209.5t10.5 -120.5v-11q0 -29 -1.5 -45.5t-8.5 -51.5q52 38 105 76q81 57 145 92q84 46 128 46q118 0 189 -61q80 -69 80 -199v-479zM933 667q0 35 -74 65.5t-130 30.5q-66 0 -148.5 -42.5t-239.5 -155.5h262q330 0 330 102z" />
    <glyph glyph-name="uni0638.init" unicode="&#x638;" horiz-adv-x="1072" arabic-form="initial" 
d="M916 1367l-120 -224l-234 122l121 226zM1072 293h-1142v272h133q24 0 135 83q37 27 107 84q0 123 -9 208t-29 177q-5 22 -54 217l-58 36q23 105 38 150.5t58 143.5l46 -18q0 -6 -4 -26q0 -35 99 -83q33 -16 99 -41q-10 -78 -32 -146q-11 -34 -40 -106l-36 12
q31 -142 41.5 -209.5t10.5 -120.5v-11q0 -29 -1.5 -45.5t-8.5 -51.5q52 38 105 76q81 57 145 92q84 46 128 46q118 0 189 -61q80 -69 80 -199v-479zM933 667q0 35 -74 65.5t-130 30.5q-66 0 -148.5 -42.5t-239.5 -155.5h262q330 0 330 102z" />
    <glyph glyph-name="uni0638.medi" unicode="&#x638;" horiz-adv-x="1072" arabic-form="medial" 
d="M916 1367l-120 -224l-234 122l121 226zM1072 293h-1142v272h133q24 0 135 83q37 27 107 84q0 123 -9 208t-29 177q-5 22 -54 217l-58 36q23 105 38 150.5t58 143.5l46 -18q0 -6 -4 -26q0 -35 99 -83q33 -16 99 -41q-10 -78 -32 -146q-11 -34 -40 -106l-36 12
q31 -142 41.5 -209.5t10.5 -120.5v-11q0 -29 -1.5 -45.5t-8.5 -51.5q52 38 105 76q81 57 145 92q84 46 128 46q118 0 189 -61q80 -69 80 -199v-479zM933 667q0 35 -74 65.5t-130 30.5q-66 0 -148.5 -42.5t-239.5 -155.5h262q330 0 330 102z" />
    <glyph glyph-name="uni0639.fina" unicode="&#x639;" horiz-adv-x="960" arabic-form="final" 
d="M1056 -182l-368 -224q-325 0 -471.5 122.5t-146.5 383.5q0 182 70 329t220 279q-12 74 -54 74q-16 0 -25 -9q-12 -15 -23 -27l-48 10q0 139 62 230q70 102 196 102q112 0 185 -62t73 -160q0 -59 -30 -112q-33 -58 -90 -86q50 -58 122 -85q49 -18 92 -18h140v-272h-140
q-143 0 -229 56q-96 62 -173 221q-112 -74 -173 -169.5t-61 -194.5q0 -177 156.5 -262.5t493.5 -85.5q52 0 110 1t106 3z" />
    <glyph glyph-name="uni0639.init" unicode="&#x639;" horiz-adv-x="1108" arabic-form="initial" 
d="M990 770l-112 -284q-269 -83 -445 -128q-153 -39 -258 -54q-77 -11 -155 -11h-90v272h108q29 0 43 1q30 4 59 6q-50 75 -67 121.5t-17 104.5q0 149 123.5 260.5t288.5 111.5q111 0 212 -73q93 -68 136 -165l-42 -36q-79 30 -125.5 39t-114.5 9q-124 0 -215 -20
q-115 -25 -115 -72q0 -69 278 -228z" />
    <glyph glyph-name="uni0639.medi" unicode="&#x639;" horiz-adv-x="738" arabic-form="medial" 
d="M738 293h-148q-79 0 -139 32t-97 103q-65 -80 -169 -113q-69 -22 -150 -22h-105v272h105q83 0 116.5 8.5t90.5 38.5q-30 59 -52 85q-27 31 -56 31q-11 0 -20.5 -7.5t-21.5 -28.5l-44 6q0 181 62.5 258.5t197.5 77.5q139 0 218.5 -54.5t79.5 -149.5q0 -51 -21 -97.5
t-79 -126.5q14 -19 38 -30t46 -11h148v-272z" />
    <glyph glyph-name="uni063A.fina" unicode="&#x63a;" horiz-adv-x="960" arabic-form="final" 
d="M647 1433l-120 -224l-234 122l122 226zM1056 -182l-368 -224q-325 0 -471.5 122.5t-146.5 383.5q0 182 70 329t220 279q-12 74 -54 74q-16 0 -25 -9q-12 -15 -23 -27l-48 10q0 139 62 230q70 102 196 102q112 0 185 -62t73 -160q0 -59 -30 -112q-33 -58 -90 -86
q50 -58 122 -85q49 -18 92 -18h140v-272h-140q-143 0 -229 56q-96 62 -173 221q-112 -74 -173 -169.5t-61 -194.5q0 -177 156.5 -262.5t493.5 -85.5q52 0 110 1t106 3z" />
    <glyph glyph-name="uni063A.init" unicode="&#x63a;" horiz-adv-x="1108" arabic-form="initial" 
d="M583 1514l-120 -224l-234 122l127 226zM990 770l-112 -284q-269 -83 -445 -128q-153 -39 -258 -54q-77 -11 -155 -11h-90v272h108q29 0 43 1q30 4 59 6q-50 75 -67 121.5t-17 104.5q0 149 123.5 260.5t288.5 111.5q111 0 212 -73q93 -68 136 -165l-42 -36
q-79 30 -125.5 39t-114.5 9q-124 0 -215 -20q-115 -25 -115 -72q0 -69 278 -228z" />
    <glyph glyph-name="uni063A.medi" unicode="&#x63a;" horiz-adv-x="738" arabic-form="medial" 
d="M481 1424l-120 -224l-234 122l122 226zM738 293h-148q-79 0 -139 32t-97 103q-65 -80 -169 -113q-69 -22 -150 -22h-105v272h105q83 0 116.5 8.5t90.5 38.5q-30 59 -52 85q-27 31 -56 31q-11 0 -20.5 -7.5t-21.5 -28.5l-44 6q0 181 62.5 258.5t197.5 77.5
q139 0 218.5 -54.5t79.5 -149.5q0 -51 -21 -97.5t-79 -126.5q14 -19 38 -30t46 -11h148v-272z" />
    <glyph glyph-name="uni0641.fina" unicode="&#x641;" horiz-adv-x="1552" arabic-form="final" 
d="M1474 1472l-120 -224l-234 122l120 226zM1552 293h-134q-175 0 -397 -8q-134 -5 -348 -15t-230 -10q-213 0 -308 75q-88 70 -88 217q0 114 22 199t102 275l66 -30q-72 -171 -72 -250q0 -103 81 -148q90 -50 311 -50q153 9 298 15.5t278 6.5q-41 20 -56.5 44.5t-15.5 71.5
q0 143 87 285q94 153 207 153q106 0 154 -148q43 -134 43 -411v-272zM1396 692q-35 98 -58 129t-60 31q-19 0 -33.5 -14.5t-14.5 -37.5q0 -31 43 -58t123 -50z" />
    <glyph glyph-name="uni0641.init" unicode="&#x641;" horiz-adv-x="624" arabic-form="initial" 
d="M479 1616l-120 -224l-234 122l128 226zM624 293h-694v272h600q0 87 -5 124q-8 57 -33 99q-32 -62 -86 -95t-115 -33q-80 0 -135 53t-55 133q0 118 72 280q79 178 160 178q105 0 198 -183t93 -387v-441zM407 966q-27 47 -47.5 65.5t-44.5 18.5q-30 0 -54 -27t-24 -63
q0 -23 18.5 -38.5t47.5 -15.5q23 0 46.5 13.5t57.5 46.5z" />
    <glyph glyph-name="uni0641.medi" unicode="&#x641;" horiz-adv-x="664" arabic-form="medial" 
d="M566 1472l-120 -224l-234 122l121 226zM664 293h-734v272h180q46 0 87 -4q110 -12 251 -27q-149 33 -208.5 87.5t-59.5 158.5q0 155 71.5 279.5t160.5 124.5q101 0 176.5 -174.5t75.5 -421.5v-295zM528 708q-36 86 -80 134t-88 48q-20 0 -35 -13t-15 -31
q0 -43 64.5 -83.5t153.5 -54.5z" />
    <glyph glyph-name="uni0642.fina" unicode="&#x642;" horiz-adv-x="1254" arabic-form="final" 
d="M1212 1246l-110 -204l-142 80l-80 -158l-186 102l104 194l148 -74l84 162zM1254 266q0 -197 -22 -260.5t-105 -129.5q-181 -142 -512 -142q-278 0 -427 91t-149 261q0 147 46 267q51 132 190 325l60 -42q-91 -132 -129.5 -223t-38.5 -177q0 -122 126 -190t354 -68
q206 0 364 80t158 182q0 13 -0.5 27t-5.5 33q-105 -10 -156 -10q-110 0 -172 55t-62 155q0 147 74 293q80 157 178 157q108 0 171 -155q58 -142 58 -353v-176zM1073 566q-27 62 -55 88t-67 26q-25 0 -39.5 -15.5t-14.5 -40.5q0 -66 84 -66q30 0 44 1.5t48 6.5z" />
    <glyph glyph-name="uni0642.init" unicode="&#x642;" horiz-adv-x="624" arabic-form="initial" 
d="M529 1626l-110 -204l-142 80l-80 -158l-186 102l104 194l148 -74l84 162zM624 293h-694v272h600q0 87 -5 124q-8 57 -33 99q-32 -62 -86 -95t-115 -33q-80 0 -135 53t-55 133q0 118 72 280q79 178 160 178q105 0 198 -183t93 -387v-441zM407 966q-27 47 -47.5 65.5
t-44.5 18.5q-30 0 -54 -27t-24 -63q0 -23 18.5 -38.5t47.5 -15.5q23 0 46.5 13.5t57.5 46.5z" />
    <glyph glyph-name="uni0642.medi" unicode="&#x642;" horiz-adv-x="664" arabic-form="medial" 
d="M539 1496l-110 -204l-142 80l-80 -158l-186 102l104 194l148 -74l84 162zM664 293h-734v272h180q46 0 87 -4q110 -12 251 -27q-149 33 -208.5 87.5t-59.5 158.5q0 155 71.5 279.5t160.5 124.5q101 0 176.5 -174.5t75.5 -421.5v-295zM528 708q-36 86 -80 134t-88 48
q-20 0 -35 -13t-15 -31q0 -43 64.5 -83.5t153.5 -54.5z" />
    <glyph glyph-name="uni0643.fina" unicode="&#x643;" horiz-adv-x="1108" arabic-form="final" 
d="M765 1038q0 -133 -78.5 -207.5t-219.5 -74.5q-39 0 -62.5 2t-77.5 12l12 64h18q99 0 182.5 27.5t83.5 64.5q0 14 -10 19.5t-40 8.5q-96 0 -96 84q0 60 23.5 133.5t66.5 148.5q28 46 57 68t87 40q-2 -39 -3 -85t-1 -81q-54 -15 -90 -42q-32 -24 -32 -42q0 -21 68 -30
q62 0 87 -25t25 -85zM1108 293h-671q-216 0 -311 74q-85 66 -85 205q0 93 28.5 182.5t97.5 213.5l60 -42q-39 -77 -50.5 -114.5t-11.5 -79.5q0 -96 71 -131.5t271 -35.5h481l-121 679l-64 42q0 59 18 119q23 76 78 181l46 -24q0 -6 -4 -32q0 -33 42 -64q37 -28 118 -62
q-9 -64 -26.5 -125t-39.5 -109l-36 14l109 -619v-272z" />
    <glyph glyph-name="uni0643.init" unicode="&#x643;" horiz-adv-x="738" arabic-form="initial" 
d="M738 293h-808v272h649q-39 47 -76 82q-30 28 -81 68q-57 44 -113 88l-32 -36q-89 88 -106 107q-50 57 -50 131q0 101 14 142q20 58 85 103q58 40 124 73q52 26 138 61q40 16 169 66v-238q-5 0 -84 -26q-98 -32 -156 -56q-84 -34 -84 -51q0 -9 71 -78q97 -94 163 -172
q109 -129 177 -257v-279z" />
    <glyph glyph-name="uni0643.medi" unicode="&#x643;" horiz-adv-x="738" arabic-form="medial" 
d="M738 293h-808v272h649q-39 47 -76 82q-30 28 -81 68q-57 44 -113 88l-32 -36q-89 88 -106 107q-50 57 -50 131q0 101 14 142q20 58 85 103q58 40 124 73q52 26 138 61q40 16 169 66v-238q-5 0 -84 -26q-98 -32 -156 -56q-84 -34 -84 -51q0 -9 71 -78q97 -94 163 -172
q109 -129 177 -257v-279z" />
    <glyph glyph-name="uni0644.fina" unicode="&#x644;" horiz-adv-x="924" arabic-form="final" 
d="M924 318q0 -154 -160 -273t-365 -119q-171 0 -267.5 86.5t-96.5 241.5q0 145 36 253q41 122 160 299l62 -42q-78 -117 -111 -203t-33 -171q0 -91 67.5 -140.5t190.5 -49.5q176 0 286 68t110 178v30v17q0 39 -6.5 86t-33.5 194q-43 237 -86 475l-50 36q0 98 92 300l46 -22
q-4 -14 -4 -32q0 -40 41 -65q61 -34 115 -65q-11 -86 -22 -123t-46 -111l-30 12q0 -15 28.5 -170.5t48.5 -268.5q28 -162 28 -197v-224z" />
    <glyph glyph-name="uni0644.init" unicode="&#x644;" horiz-adv-x="480" arabic-form="initial" 
d="M480 293h-550v272h430l-121 679l-64 42q0 59 18 119q23 76 78 181l46 -24q0 -6 -4 -32q0 -33 42 -64q37 -28 118 -62q-9 -64 -26.5 -125t-39.5 -109l-36 14l109 -619v-272z" />
    <glyph glyph-name="uni0644.medi" unicode="&#x644;" horiz-adv-x="480" arabic-form="medial" 
d="M480 293h-550v272h430l-121 679l-64 42q0 59 18 119q23 76 78 181l46 -24q0 -6 -4 -32q0 -33 42 -64q37 -28 118 -62q-9 -64 -26.5 -125t-39.5 -109l-36 14l109 -619v-272z" />
    <glyph glyph-name="uni0645.fina" unicode="&#x645;" horiz-adv-x="738" arabic-form="final" 
d="M738 293l-130 1q-183 0 -324 -31t-141 -71q39 -120 69.5 -225t30.5 -199q0 -68 -13.5 -110t-50.5 -92q-11 132 -49 277q-13 51 -65 215q-32 101 -32 134q0 47 26 117q21 57 48 101q32 50 111.5 79t242.5 47q-80 112 -140 112q-26 0 -49 -20t-75 -88l-48 24
q44 153 108.5 235.5t141.5 82.5q67 0 149 -77t190 -240v-272z" />
    <glyph glyph-name="uni0645.init" unicode="&#x645;" horiz-adv-x="850" arabic-form="initial" 
d="M850 294q-105 0 -247 41q-125 36 -220 85q-58 -87 -143 -114q-41 -13 -112 -13h-198v272h198q90 0 143 22q68 28 94 97q57 127 146 209q79 73 134 73q51 0 126 -154q79 -163 79 -300v-218zM663 596q0 22 -43 76q-48 60 -83 60q-39 0 -66 -90q52 -20 79 -30q81 -30 91 -30
q22 0 22 14z" />
    <glyph glyph-name="uni0645.medi" unicode="&#x645;" horiz-adv-x="850" arabic-form="medial" 
d="M850 294q-105 0 -247 41q-125 36 -220 85q-58 -87 -143 -114q-41 -13 -112 -13h-198v272h198q90 0 143 22q68 28 94 97q57 127 146 209q79 73 134 73q51 0 126 -154q79 -163 79 -300v-218zM663 596q0 22 -43 76q-48 60 -83 60q-39 0 -66 -90q52 -20 79 -30q81 -30 91 -30
q22 0 22 14z" />
    <glyph glyph-name="uni0646.fina" unicode="&#x646;" horiz-adv-x="1108" arabic-form="final" 
d="M779 1129l-120 -224l-234 122l121 226zM1108 342q0 -138 -27 -221.5t-88.5 -134.5t-180 -83.5t-244.5 -32.5q-243 0 -374.5 88.5t-131.5 251.5q0 139 42 254q46 127 180 330l60 -42q-99 -169 -129.5 -245t-30.5 -157q0 -105 112.5 -171.5t295.5 -66.5q180 0 303 69
t123 169q0 62 -21.5 123t-92.5 195l88 270q70 -127 86 -175q30 -87 30 -221v-200z" />
    <glyph glyph-name="uni0646.init" unicode="&#x646;" horiz-adv-x="556" arabic-form="initial" 
d="M562 1382l-120 -224l-234 122l121 226zM556 293h-626v272h526q-11 68 -40 115q-15 26 -70 90l80 238q75 -85 102.5 -178t27.5 -276v-261z" />
    <glyph glyph-name="uni0646.medi" unicode="&#x646;" horiz-adv-x="556" arabic-form="medial" 
d="M562 1382l-120 -224l-234 122l121 226zM556 293h-626v272h526q-11 68 -40 115q-15 26 -70 90l80 238q75 -85 102.5 -178t27.5 -276v-261z" />
    <glyph glyph-name="uni0648.fina" unicode="&#x648;" horiz-adv-x="924" arabic-form="final" 
d="M924 362q0 -172 -146 -340t-288 -168q-83 0 -181.5 53t-302.5 209l42 58q108 -72 177 -96q57 -20 129 -20q97 0 192 54q112 64 232 206q-42 -6 -70 -6q-99 0 -157.5 64.5t-58.5 175.5q0 150 69 289q75 151 171 151q80 0 136 -109t56 -263v-258zM804 565q-28 161 -114 161
q-31 0 -49.5 -24.5t-18.5 -53.5q0 -36 39.5 -59.5t104.5 -23.5h38z" />
    <glyph glyph-name="uni0649.fina" unicode="&#x649;" horiz-adv-x="1135" arabic-form="final" 
d="M1135 293h-85q-37 0 -59.5 -6t-22.5 -17q0 -6 49 -25t49 -59q0 -55 -16.5 -132.5t-45.5 -139.5q-22 -48 -123 -110q-108 -66 -245 -110q-157 -50 -298 -50q-162 0 -245 75t-83 219q0 158 38 274q46 140 188 366l56 -42q-94 -160 -129 -255t-35 -187t59 -145t163 -53
q127 0 273 39q132 35 226.5 84.5t94.5 81.5q0 10 -56 12t-100 2q-106 0 -137 8t-31 37q0 54 19.5 114t46.5 92q66 80 156 136q101 63 181 63h112v-272z" />
    <glyph glyph-name="uni064A.fina" unicode="&#x64a;" horiz-adv-x="1182" arabic-form="final" 
d="M1182 293h-103q-45 0 -64.5 -2t-19.5 -13q29 -17 54.5 -23.5t33.5 -17t8 -33.5q0 -71 -40.5 -169.5t-79.5 -122.5q-37 -31 -219.5 -71.5t-314.5 -40.5q-188 0 -304 78t-116 204q0 122 51 233q62 134 229 339l60 -42q-105 -127 -145.5 -207t-40.5 -157q0 -107 88.5 -158.5
t273.5 -51.5q96 0 266 35t170 61q0 12 -65 22t-143 10q-114 0 -114 50q0 23 27 82q19 41 39 82q37 83 141.5 134t218.5 51h109v-272zM767 -304l-98 -112l-106 66l-78 -84l-126 70l94 120l110 -70l78 90z" />
    <glyph glyph-name=".notdef" horiz-adv-x="1536" 
d="M256 0v1280h1024v-1280h-1024zM288 32h960v1216h-960v-1216z" />
    <glyph glyph-name=".null" 
 />
    <glyph glyph-name="nonmarkingreturn" horiz-adv-x="569" 
 />
    <glyph glyph-name="space" unicode=" " horiz-adv-x="569" 
 />
    <glyph glyph-name="space" unicode="&#xa0;" horiz-adv-x="569" 
 />
    <glyph glyph-name="exclam" unicode="!" horiz-adv-x="682" 
d="M257 378l-73 744v344h304v-344l-72 -744h-159zM196 0v281h281v-281h-281z" />
    <glyph glyph-name="quotedbl" unicode="&#x22;" horiz-adv-x="971" 
d="M165 945l-53 273v248h306v-248l-46 -273h-207zM616 945l-53 273v248h306v-248l-46 -273h-207z" />
    <glyph glyph-name="numbersign" unicode="#" horiz-adv-x="1139" 
d="M154 365h-136v220h180l60 295h-240v221h285l79 390h224l-79 -390h221l77 390h232l-80 -390h138v-221h-183l-60 -295h243v-220h-288l-79 -390h-223l77 390h-222l-79 -390h-226zM483 880l-59 -295h222l58 295h-221z" />
    <glyph glyph-name="dollar" unicode="$" horiz-adv-x="1139" 
d="M489 217v419q-196 56 -287.5 169.5t-91.5 275.5q0 164 103.5 275.5t275.5 128.5v99h145v-99q159 -19 253 -108.5t120 -239.5l-253 -33q-23 118 -120 160v-391q240 -65 327 -168.5t87 -265.5q0 -181 -109.5 -305t-304.5 -152v-187h-145v182q-173 21 -281 129t-138 305
l261 28q16 -80 60 -138t98 -84zM489 1267q-59 -20 -94 -68t-35 -106q0 -53 32 -98.5t97 -73.5v346zM634 203q75 14 122 69.5t47 130.5q0 67 -39.5 115.5t-129.5 74.5v-390z" />
    <glyph glyph-name="percent" unicode="%" horiz-adv-x="1821" 
d="M89 1104q0 197 86.5 292t234.5 95q153 0 239.5 -94.5t86.5 -292.5q0 -197 -86.5 -292t-234.5 -95q-153 0 -239.5 94.5t-86.5 292.5zM308 1106q0 -143 33 -192q25 -36 69 -36q45 0 70 36q32 49 32 192t-32 191q-25 37 -70 37q-44 0 -69 -36q-33 -49 -33 -192zM624 -56
h-208l781 1547h202zM1078 329q0 197 86.5 292t236.5 95q151 0 237.5 -95t86.5 -292q0 -198 -86.5 -293t-234.5 -95q-153 0 -239.5 95t-86.5 293zM1297 330q0 -143 33 -191q25 -37 69 -37q45 0 69 36q33 49 33 192t-32 192q-25 36 -70 36t-69 -36q-33 -49 -33 -192z" />
    <glyph glyph-name="ampersand" unicode="&#x26;" horiz-adv-x="1479" 
d="M1446 179l-170 -217q-125 61 -240 168q-89 -80 -189 -118t-238 -38q-274 0 -412 154q-107 119 -107 274q0 141 84 253.5t251 195.5q-75 89 -113 169.5t-38 152.5q0 133 106.5 225.5t303.5 92.5q190 0 297 -97t107 -237q0 -89 -53 -169t-214 -181l204 -269q36 64 62 167
l254 -58q-38 -135 -66 -197.5t-60 -104.5q47 -44 121.5 -96.5t109.5 -69.5zM681 976l76 58q84 65 84 129q0 54 -40.5 92t-109.5 38q-67 0 -105 -33.5t-38 -77.5q0 -52 64 -126zM571 671q-97 -49 -145 -118t-48 -141q0 -91 59.5 -148.5t159.5 -57.5q66 0 127 26t133 86z" />
    <glyph glyph-name="quotesingle" unicode="'" horiz-adv-x="487" 
d="M145 945l-53 273v248h306v-248l-46 -273h-207z" />
    <glyph glyph-name="parenleft" unicode="(" horiz-adv-x="682" 
d="M613 -431h-193q-153 231 -233 480t-80 482q0 289 99 547q86 224 218 413h192q-137 -303 -188.5 -515.5t-51.5 -450.5q0 -164 30.5 -336t83.5 -327q35 -102 123 -293z" />
    <glyph glyph-name="parenright" unicode=")" horiz-adv-x="682" 
d="M69 -431q83 178 117 273t63 219t43 235.5t14 228.5q0 238 -51 450.5t-188 515.5h191q151 -215 234.5 -456t83.5 -489q0 -209 -66 -448q-75 -268 -247 -529h-194z" />
    <glyph glyph-name="asterisk" unicode="*" horiz-adv-x="797" 
d="M245 792l-151 117q72 81 150 155q31 30 39 38q-25 4 -143 33q-85 21 -112 31l59 176q131 -53 234 -117q-24 163 -24 266h178q0 -73 -27 -268q20 8 86 39q90 41 166 70l53 -181q-111 -25 -257 -49l120 -135q36 -41 57 -67l-153 -101l-135 223q-61 -108 -140 -230z" />
    <glyph glyph-name="plus" unicode="+" horiz-adv-x="1196" 
d="M469 211v381h-384v263h384v381h256v-381h385v-263h-385v-381h-256z" />
    <glyph glyph-name="comma" unicode="," horiz-adv-x="569" 
d="M140 281h281v-201q0 -122 -21 -192.5t-79.5 -126.5t-148.5 -88l-55 116q85 28 121 77t38 134h-136v281z" />
    <glyph glyph-name="hyphen" unicode="-" horiz-adv-x="682" 
d="M115 391v281h552v-281h-552z" />
    <glyph glyph-name="hyphen" unicode="&#xad;" horiz-adv-x="682" 
d="M115 391v281h552v-281h-552z" />
    <glyph glyph-name="period" unicode="." horiz-adv-x="569" 
d="M147 0v281h281v-281h-281z" />
    <glyph glyph-name="slash" unicode="/" horiz-adv-x="569" 
d="M-3 -25l363 1516h211l-367 -1516h-207z" />
    <glyph glyph-name="zero" unicode="0" horiz-adv-x="1139" 
d="M562 1472q213 0 333 -152q143 -180 143 -597q0 -416 -144 -598q-119 -150 -332 -150q-214 0 -345 164.5t-131 586.5q0 414 144 596q119 150 332 150zM562 1239q-51 0 -91 -32.5t-62 -116.5q-29 -109 -29 -367t26 -354.5t65.5 -128.5t90.5 -32t91 32.5t62 116.5
q29 108 29 366t-26 354.5t-65.5 129t-90.5 32.5z" />
    <glyph glyph-name="one" unicode="1" horiz-adv-x="1139" 
d="M806 0h-281v1059q-154 -144 -363 -213v255q110 36 239 136.5t177 234.5h228v-1472z" />
    <glyph glyph-name="two" unicode="2" horiz-adv-x="1139" 
d="M1036 261v-261h-985q16 148 96 280.5t316 351.5q190 177 233 240q58 87 58 172q0 94 -50.5 144.5t-139.5 50.5q-88 0 -140 -53t-60 -176l-280 28q25 232 157 333t330 101q217 0 341 -117t124 -291q0 -99 -35.5 -188.5t-112.5 -187.5q-51 -65 -184 -187t-168.5 -162
t-57.5 -78h558z" />
    <glyph glyph-name="three" unicode="3" horiz-adv-x="1139" 
d="M77 389l272 33q13 -104 70 -159t138 -55q87 0 146.5 66t59.5 178q0 106 -57 168t-139 62q-54 0 -129 -21l31 229q114 -3 174 49.5t60 139.5q0 74 -44 118t-117 44q-72 0 -123 -50t-62 -146l-259 44q27 133 81.5 212.5t152 125t218.5 45.5q207 0 332 -132
q103 -108 103 -244q0 -193 -211 -308q126 -27 201.5 -121t75.5 -227q0 -193 -141 -329t-351 -136q-199 0 -330 114.5t-152 299.5z" />
    <glyph glyph-name="four" unicode="4" horiz-adv-x="1139" 
d="M638 0v295h-600v246l636 931h236v-930h182v-247h-182v-295h-272zM638 542v501l-337 -501h337z" />
    <glyph glyph-name="five" unicode="5" horiz-adv-x="1139" 
d="M91 377l280 29q12 -95 71 -150.5t136 -55.5q88 0 149 71.5t61 215.5q0 135 -60.5 202.5t-157.5 67.5q-121 0 -217 -107l-228 33l144 763h743v-263h-530l-44 -249q94 47 192 47q187 0 317 -136t130 -353q0 -181 -105 -323q-143 -194 -397 -194q-203 0 -331 109t-153 293z
" />
    <glyph glyph-name="six" unicode="6" horiz-adv-x="1139" 
d="M1039 1107l-272 -30q-10 84 -52 124t-109 40q-89 0 -150.5 -80t-77.5 -333q105 124 261 124q176 0 301.5 -134t125.5 -346q0 -225 -132 -361t-339 -136q-222 0 -365 172.5t-143 565.5q0 403 149 581t387 178q167 0 276.5 -93.5t139.5 -271.5zM402 494q0 -137 63 -211.5
t144 -74.5q78 0 130 61t52 200q0 143 -56 209.5t-140 66.5q-81 0 -137 -63.5t-56 -187.5z" />
    <glyph glyph-name="seven" unicode="7" horiz-adv-x="1139" 
d="M87 1185v261h961v-204q-119 -117 -242 -336t-187.5 -465.5t-63.5 -440.5h-271q7 304 125.5 620t316.5 565h-639z" />
    <glyph glyph-name="eight" unicode="8" horiz-adv-x="1139" 
d="M328 791q-109 46 -158.5 126.5t-49.5 176.5q0 164 114.5 271t325.5 107q209 0 324.5 -107t115.5 -271q0 -102 -53 -181.5t-149 -121.5q122 -49 185.5 -143t63.5 -217q0 -203 -129.5 -330t-344.5 -127q-200 0 -333 105q-157 124 -157 340q0 119 59 218.5t186 153.5z
M386 1074q0 -84 47.5 -131t126.5 -47q80 0 128 47.5t48 131.5q0 79 -47.5 126.5t-125.5 47.5q-81 0 -129 -48t-48 -127zM360 446q0 -116 59.5 -181t148.5 -65q87 0 144 62.5t57 180.5q0 103 -58 165.5t-147 62.5q-103 0 -153.5 -71t-50.5 -154z" />
    <glyph glyph-name="nine" unicode="9" horiz-adv-x="1139" 
d="M93 339l272 30q10 -83 52 -123t111 -40q87 0 148 80t78 332q-106 -123 -265 -123q-173 0 -298.5 133.5t-125.5 347.5q0 223 132.5 359.5t337.5 136.5q223 0 366 -172.5t143 -567.5q0 -402 -149 -580t-388 -178q-172 0 -278 91.5t-136 273.5zM729 953q0 136 -62.5 211
t-144.5 75q-78 0 -129.5 -61.5t-51.5 -201.5q0 -142 56 -208.5t140 -66.5q81 0 136.5 64t55.5 188z" />
    <glyph glyph-name="colon" unicode=":" horiz-adv-x="682" 
d="M201 781v281h281v-281h-281zM201 0v281h281v-281h-281z" />
    <glyph glyph-name="semicolon" unicode=";" horiz-adv-x="682" 
d="M193 781v281h281v-281h-281zM193 281h281v-201q0 -122 -21 -192.5t-79.5 -126.5t-148.5 -88l-55 116q85 28 121 78t38 133h-136v281z" />
    <glyph glyph-name="semicolon" unicode="&#x37e;" horiz-adv-x="682" 
d="M193 781v281h281v-281h-281zM193 281h281v-201q0 -122 -21 -192.5t-79.5 -126.5t-148.5 -88l-55 116q85 28 121 78t38 133h-136v281z" />
    <glyph glyph-name="less" unicode="&#x3c;" horiz-adv-x="1196" 
d="M1100 167l-1005 437v242l1005 435v-285l-701 -268l701 -278v-283z" />
    <glyph glyph-name="equal" unicode="=" horiz-adv-x="1196" 
d="M85 816v258h1025v-258h-1025zM85 372v259h1025v-259h-1025z" />
    <glyph glyph-name="greater" unicode="&#x3e;" horiz-adv-x="1196" 
d="M95 166v283l702 276l-702 273v281l1006 -435v-240z" />
    <glyph glyph-name="question" unicode="?" horiz-adv-x="1251" 
d="M751 378h-255q-1 55 -1 67q0 124 41 204t164 180t147 131q37 49 37 108q0 82 -65.5 140.5t-176.5 58.5q-107 0 -179 -61t-99 -186l-258 32q11 179 152.5 304t371.5 125q242 0 385 -126.5t143 -294.5q0 -93 -52.5 -176t-224.5 -226q-89 -74 -110.5 -119t-19.5 -161zM496 0
v281h281v-281h-281z" />
    <glyph glyph-name="at" unicode="@" horiz-adv-x="1997" 
d="M1777 19h213q-100 -203 -307 -318q-237 -132 -578 -132q-330 0 -570 111.5t-357 329t-117 473.5q0 281 133 523.5t364 364t528 121.5q252 0 448 -98t299.5 -278.5t103.5 -394.5q0 -255 -157 -461q-197 -260 -505 -260q-83 0 -125 29t-56 85q-118 -114 -272 -114
q-166 0 -275.5 114.5t-109.5 304.5q0 235 132 429q160 236 410 236q178 0 263 -136l25 111h264l-151 -717q-14 -68 -14 -88q0 -25 11.5 -37.5t27.5 -12.5q48 0 124 58q102 76 165 204t63 265q0 246 -178 411.5t-497 165.5q-271 0 -459.5 -110.5t-284 -311t-95.5 -417.5
q0 -211 106.5 -384t299 -252.5t440.5 -79.5q239 0 411 66.5t277 199.5zM696 430q0 -127 51.5 -187t127.5 -60q57 0 107 28q38 20 75 63q53 61 91.5 178t38.5 218q0 113 -52.5 173.5t-132.5 60.5q-86 0 -159 -66.5t-110 -189.5t-37 -218z" />
    <glyph glyph-name="A" unicode="A" horiz-adv-x="1479" 
d="M1471 0h-322l-128 333h-586l-121 -333h-314l571 1466h313zM926 580l-202 544l-198 -544h400z" />
    <glyph glyph-name="B" unicode="B" horiz-adv-x="1479" 
d="M150 1466h586q174 0 259.5 -14.5t153 -60.5t112.5 -122.5t45 -171.5q0 -103 -55.5 -189t-150.5 -129q134 -39 206 -133t72 -221q0 -100 -46.5 -194.5t-127 -151t-198.5 -69.5q-74 -8 -357 -10h-499v1466zM446 1222v-339h194q173 0 215 5q76 9 119.5 52.5t43.5 114.5
q0 68 -37.5 110.5t-111.5 51.5q-44 5 -253 5h-170zM446 639v-392h274q160 0 203 9q66 12 107.5 58.5t41.5 124.5q0 66 -32 112t-92.5 67t-262.5 21h-239z" />
    <glyph glyph-name="C" unicode="C" horiz-adv-x="1479" 
d="M1087 539l287 -91q-66 -240 -219.5 -356.5t-389.5 -116.5q-292 0 -480 199.5t-188 545.5q0 366 189 568.5t497 202.5q269 0 437 -159q100 -94 150 -270l-293 -70q-26 114 -108.5 180t-200.5 66q-163 0 -264.5 -117t-101.5 -379q0 -278 100 -396t260 -118q118 0 203 75
t122 236z" />
    <glyph glyph-name="D" unicode="D" horiz-adv-x="1479" 
d="M148 1466h541q183 0 279 -28q129 -38 221 -135t140 -237.5t48 -346.5q0 -181 -45 -312q-55 -160 -157 -259q-77 -75 -208 -117q-98 -31 -262 -31h-557v1466zM444 1218v-971h221q124 0 179 14q72 18 119.5 61t77.5 141.5t30 268.5t-30 261t-84 142t-137 69q-62 14 -243 14
h-133z" />
    <glyph glyph-name="E" unicode="E" horiz-adv-x="1366" 
d="M149 0v1466h1087v-248h-791v-325h736v-247h-736v-399h819v-247h-1115z" />
    <glyph glyph-name="F" unicode="F" horiz-adv-x="1251" 
d="M151 0v1466h1005v-248h-709v-347h612v-248h-612v-623h-296z" />
    <glyph glyph-name="G" unicode="G" horiz-adv-x="1593" 
d="M831 539v247h638v-584q-93 -90 -269.5 -158.5t-357.5 -68.5q-230 0 -401 96.5t-257 276t-86 390.5q0 229 96 407t281 273q141 73 351 73q273 0 426.5 -114.5t197.5 -316.5l-294 -55q-31 108 -116.5 170.5t-213.5 62.5q-194 0 -308.5 -123t-114.5 -365q0 -261 116 -391.5
t304 -130.5q93 0 186.5 36.5t160.5 88.5v186h-339z" />
    <glyph glyph-name="H" unicode="H" horiz-adv-x="1479" 
d="M150 0v1466h296v-577h580v577h296v-1466h-296v641h-580v-641h-296z" />
    <glyph glyph-name="I" unicode="I" horiz-adv-x="569" 
d="M140 0v1466h296v-1466h-296z" />
    <glyph glyph-name="J" unicode="J" horiz-adv-x="1139" 
d="M678 1466h295v-928q0 -182 -32 -280q-43 -128 -156 -205.5t-298 -77.5q-217 0 -334 121.5t-118 356.5l279 32q5 -126 37 -178q48 -79 146 -79q99 0 140 56.5t41 234.5v947z" />
    <glyph glyph-name="K" unicode="K" horiz-adv-x="1479" 
d="M153 0v1466h296v-651l598 651h398l-552 -571l582 -895h-383l-403 688l-240 -245v-443h-296z" />
    <glyph glyph-name="L" unicode="L" horiz-adv-x="1251" 
d="M157 0v1454h296v-1207h736v-247h-1032z" />
    <glyph glyph-name="M" unicode="M" horiz-adv-x="1706" 
d="M145 0v1466h443l266 -1000l263 1000h444v-1466h-275v1154l-291 -1154h-285l-290 1154v-1154h-275z" />
    <glyph glyph-name="N" unicode="N" horiz-adv-x="1479" 
d="M152 0v1466h288l600 -979v979h275v-1466h-297l-591 956v-956h-275z" />
    <glyph glyph-name="O" unicode="O" horiz-adv-x="1593" 
d="M89 724q0 224 67 376q50 112 136.5 201t189.5 132q137 58 316 58q324 0 518.5 -201t194.5 -559q0 -355 -193 -555.5t-516 -200.5q-327 0 -520 199.5t-193 549.5zM394 734q0 -249 115 -377.5t292 -128.5t290.5 127.5t113.5 382.5q0 252 -110.5 376t-293.5 124t-295 -125.5
t-112 -378.5z" />
    <glyph glyph-name="P" unicode="P" horiz-adv-x="1366" 
d="M149 0v1466h475q270 0 352 -22q126 -33 211 -143.5t85 -285.5q0 -135 -49 -227t-124.5 -144.5t-153.5 -69.5q-106 -21 -307 -21h-193v-553h-296zM445 1218v-416h162q175 0 234 23t92.5 72t33.5 114q0 80 -47 132t-119 65q-53 10 -213 10h-143z" />
    <glyph glyph-name="Q" unicode="Q" horiz-adv-x="1593" 
d="M1329 186q109 -78 237 -124l-109 -209q-67 20 -131 55q-14 7 -197 130q-144 -63 -319 -63q-338 0 -529.5 199t-191.5 559q0 359 192 558.5t521 199.5q326 0 517 -199.5t191 -558.5q0 -190 -53 -334q-40 -110 -128 -213zM1091 353q57 67 85.5 162t28.5 218
q0 254 -112 379.5t-293 125.5t-293.5 -126t-112.5 -379q0 -257 112.5 -384.5t284.5 -127.5q64 0 121 21q-90 59 -183 92l83 169q146 -50 279 -150z" />
    <glyph glyph-name="R" unicode="R" horiz-adv-x="1479" 
d="M150 0v1466h623q235 0 341.5 -39.5t170.5 -140.5t64 -231q0 -165 -97 -272.5t-290 -135.5q96 -56 158.5 -123t168.5 -238l179 -286h-354l-214 319q-114 171 -156 215.5t-89 61t-149 16.5h-60v-612h-296zM446 846h219q213 0 266 18t83 62t30 110q0 74 -39.5 119.5
t-111.5 57.5q-36 5 -216 5h-231v-372z" />
    <glyph glyph-name="S" unicode="S" horiz-adv-x="1366" 
d="M74 477l288 28q26 -145 105.5 -213t214.5 -68q143 0 215.5 60.5t72.5 141.5q0 52 -30.5 88.5t-106.5 63.5q-52 18 -237 64q-238 59 -334 145q-135 121 -135 295q0 112 63.5 209.5t183 148.5t288.5 51q276 0 415.5 -121t146.5 -323l-296 -13q-19 113 -81.5 162.5
t-187.5 49.5q-129 0 -202 -53q-47 -34 -47 -91q0 -52 44 -89q56 -47 272 -98t319.5 -105.5t162 -149t58.5 -233.5q0 -126 -70 -236t-198 -163.5t-319 -53.5q-278 0 -427 128.5t-178 374.5z" />
    <glyph glyph-name="T" unicode="T" horiz-adv-x="1251" 
d="M479 0v1218h-435v248h1165v-248h-434v-1218h-296z" />
    <glyph glyph-name="U" unicode="U" horiz-adv-x="1479" 
d="M147 1466h296v-794q0 -189 11 -245q19 -90 90.5 -144.5t195.5 -54.5q126 0 190 51.5t77 126.5t13 249v811h296v-770q0 -264 -24 -373t-88.5 -184t-172.5 -119.5t-282 -44.5q-210 0 -318.5 48.5t-171.5 126t-83 162.5q-29 126 -29 372v782z" />
    <glyph glyph-name="V" unicode="V" horiz-adv-x="1366" 
d="M523 0l-524 1466h321l371 -1085l359 1085h314l-525 -1466h-316z" />
    <glyph glyph-name="W" unicode="W" horiz-adv-x="1933" 
d="M357 0l-350 1466h303l221 -1007l268 1007h352l257 -1024l225 1024h298l-356 -1466h-314l-292 1096l-291 -1096h-321z" />
    <glyph glyph-name="X" unicode="X" horiz-adv-x="1366" 
d="M0 0l501 765l-454 701h346l294 -471l288 471h343l-456 -712l501 -754h-357l-325 507l-326 -507h-355z" />
    <glyph glyph-name="Y" unicode="Y" horiz-adv-x="1366" 
d="M534 0v617l-537 849h347l345 -580l338 580h341l-539 -851v-615h-295z" />
    <glyph glyph-name="Z" unicode="Z" horiz-adv-x="1251" 
d="M22 0v267l770 951h-683v248h1073v-230l-803 -989h834v-247h-1191z" />
    <glyph glyph-name="bracketleft" unicode="[" horiz-adv-x="682" 
d="M146 -413v1879h498v-221h-231v-1437h231v-221h-498z" />
    <glyph glyph-name="backslash" unicode="\" horiz-adv-x="569" 
d="M-3 1491h207l367 -1516h-211z" />
    <glyph glyph-name="bracketright" unicode="]" horiz-adv-x="682" 
d="M536 1466v-1879h-498v221h231v1439h-231v219h498z" />
    <glyph glyph-name="asciicircum" unicode="^" horiz-adv-x="1196" 
d="M115 692l376 799h223l366 -799h-284l-198 489l-197 -489h-286z" />
    <glyph glyph-name="underscore" unicode="_" horiz-adv-x="1139" 
d="M-19 -405v182h1168v-182h-1168z" />
    <glyph glyph-name="grave" unicode="`" horiz-adv-x="682" 
d="M495 1192h-177l-276 299h315z" />
    <glyph glyph-name="a" unicode="a" horiz-adv-x="1139" 
d="M357 738l-255 46q43 154 148 228t312 74q188 0 280 -44.5t129.5 -113t37.5 -251.5l-3 -328q0 -140 13.5 -206.5t50.5 -142.5h-278q-11 28 -27 83q-7 25 -10 33q-72 -70 -154 -105t-175 -35q-164 0 -258.5 89t-94.5 225q0 90 43 160.5t120.5 108t223.5 65.5q197 37 273 69
v28q0 81 -40 115.5t-151 34.5q-75 0 -117 -29.5t-68 -103.5zM733 510q-54 -18 -171 -43t-153 -49q-55 -39 -55 -99q0 -59 44 -102t112 -43q76 0 145 50q51 38 67 93q11 36 11 137v56z" />
    <glyph glyph-name="b" unicode="b" horiz-adv-x="1251" 
d="M135 0v1466h281v-528q130 148 308 148q194 0 321 -140.5t127 -403.5q0 -272 -129.5 -419t-314.5 -147q-91 0 -179.5 45.5t-152.5 134.5v-156h-261zM414 554q0 -165 52 -244q73 -112 194 -112q93 0 158.5 79.5t65.5 250.5q0 182 -66 262.5t-169 80.5q-101 0 -168 -78.5
t-67 -238.5z" />
    <glyph glyph-name="c" unicode="c" horiz-adv-x="1139" 
d="M1073 748l-277 -50q-14 83 -63.5 125t-128.5 42q-105 0 -167.5 -72.5t-62.5 -242.5q0 -189 63.5 -267t170.5 -78q80 0 131 45.5t72 156.5l276 -47q-43 -190 -165 -287t-327 -97q-233 0 -371.5 147t-138.5 407q0 263 139 409.5t376 146.5q194 0 308.5 -83.5t164.5 -254.5z
" />
    <glyph glyph-name="d" unicode="d" horiz-adv-x="1251" 
d="M1121 0h-261v156q-65 -91 -153.5 -135.5t-178.5 -44.5q-183 0 -313.5 147.5t-130.5 411.5q0 270 127 410.5t321 140.5q178 0 308 -148v528h281v-1466zM371 554q0 -170 47 -246q68 -110 190 -110q97 0 165 82.5t68 246.5q0 183 -66 263.5t-169 80.5q-100 0 -167.5 -79.5
t-67.5 -237.5z" />
    <glyph glyph-name="e" unicode="e" horiz-adv-x="1139" 
d="M762 338l280 -47q-54 -154 -170.5 -234.5t-291.5 -80.5q-277 0 -410 181q-105 145 -105 366q0 264 138 413.5t349 149.5q237 0 374 -156.5t131 -479.5h-704q3 -125 68 -194.5t162 -69.5q66 0 111 36t68 116zM778 622q-3 122 -63 185.5t-146 63.5q-92 0 -152 -67t-59 -182
h420z" />
    <glyph glyph-name="f" unicode="f" horiz-adv-x="682" 
d="M24 1062h156v80q0 134 28.5 200t105 107.5t193.5 41.5q120 0 235 -36l-38 -196q-67 16 -129 16q-61 0 -87.5 -28.5t-26.5 -109.5v-75h210v-221h-210v-841h-281v841h-156v221z" />
    <glyph glyph-name="g" unicode="g" horiz-adv-x="1251" 
d="M121 -70l321 -39q8 -56 37 -77q40 -30 126 -30q110 0 165 33q37 22 56 71q13 35 13 129v155q-126 -172 -318 -172q-214 0 -339 181q-98 143 -98 356q0 267 128.5 408t319.5 141q197 0 325 -173v149h263v-953q0 -188 -31 -281t-87 -146t-149.5 -83t-236.5 -30
q-270 0 -383 92.5t-113 234.5q0 14 1 34zM372 553q0 -169 65.5 -247.5t161.5 -78.5q103 0 174 80.5t71 238.5q0 165 -68 245t-172 80q-101 0 -166.5 -78.5t-65.5 -239.5z" />
    <glyph glyph-name="h" unicode="h" horiz-adv-x="1251" 
d="M427 1466v-539q136 159 325 159q97 0 175 -36t117.5 -92t54 -124t14.5 -211v-623h-281v561q0 167 -16 212t-56.5 71.5t-101.5 26.5q-70 0 -125 -34t-80.5 -102.5t-25.5 -202.5v-532h-281v1466h281z" />
    <glyph glyph-name="i" unicode="i" horiz-adv-x="569" 
d="M147 1206v260h281v-260h-281zM147 0v1062h281v-1062h-281z" />
    <glyph glyph-name="j" unicode="j" horiz-adv-x="569" 
d="M141 1206v260h281v-260h-281zM422 1062v-1029q0 -203 -26.5 -286.5t-102 -130.5t-192.5 -47q-42 0 -90.5 7.5t-104.5 22.5l49 240q20 -4 37.5 -6.5t32.5 -2.5q43 0 70.5 18.5t36.5 44.5t9 156v1013h281z" />
    <glyph glyph-name="k" unicode="k" horiz-adv-x="1139" 
d="M137 0v1466h281v-778l329 374h346l-363 -388l389 -674h-303l-267 477l-131 -137v-340h-281z" />
    <glyph glyph-name="l" unicode="l" horiz-adv-x="569" 
d="M147 0v1466h281v-1466h-281z" />
    <glyph glyph-name="m" unicode="m" horiz-adv-x="1821" 
d="M126 1062h259v-145q139 169 331 169q102 0 177 -42t123 -127q70 85 151 127t173 42q117 0 198 -47.5t121 -139.5q29 -68 29 -220v-679h-281v607q0 158 -29 204q-39 60 -120 60q-59 0 -111 -36t-75 -105.5t-23 -219.5v-510h-281v582q0 155 -15 200t-46.5 67t-85.5 22
q-65 0 -117 -35t-74.5 -101t-22.5 -219v-516h-281v1062z" />
    <glyph glyph-name="n" unicode="n" horiz-adv-x="1251" 
d="M1113 0h-281v542q0 172 -18 222.5t-58.5 78.5t-97.5 28q-73 0 -131 -40t-79.5 -106t-21.5 -244v-481h-281v1062h261v-156q139 180 350 180q93 0 170 -33.5t116.5 -85.5t55 -118t15.5 -189v-660z" />
    <glyph glyph-name="o" unicode="o" horiz-adv-x="1251" 
d="M82 546q0 140 69 271t195.5 200t282.5 69q241 0 395 -156.5t154 -395.5q0 -241 -155.5 -399.5t-391.5 -158.5q-146 0 -278.5 66t-201.5 193.5t-69 310.5zM370 531q0 -158 75 -242t185 -84t184.5 84t74.5 244q0 156 -74.5 240t-184.5 84t-185 -84t-75 -242z" />
    <glyph glyph-name="p" unicode="p" horiz-adv-x="1251" 
d="M139 1062h262v-156q51 80 138 130t193 50q185 0 314 -145t129 -404q0 -266 -130 -413.5t-315 -147.5q-88 0 -159.5 35t-150.5 120v-535h-281v1466zM417 549q0 -179 71 -264.5t173 -85.5q98 0 163 78.5t65 257.5q0 167 -67 248t-166 81q-103 0 -171 -79.5t-68 -235.5z" />
    <glyph glyph-name="q" unicode="q" horiz-adv-x="1251" 
d="M841 -404v534q-55 -71 -137 -112.5t-177 -41.5q-181 0 -298 136q-138 159 -138 431q0 256 129.5 399.5t321.5 143.5q106 0 183.5 -45t137.5 -136v157h259v-1466h-281zM850 544q0 163 -66.5 242.5t-166.5 79.5q-102 0 -170.5 -81t-68.5 -257q0 -175 66 -252.5t163 -77.5
t170 87t73 259z" />
    <glyph glyph-name="r" unicode="r" horiz-adv-x="797" 
d="M416 0h-281v1062h261v-151q67 107 120.5 141t121.5 34q96 0 185 -53l-87 -245q-71 46 -132 46q-59 0 -100 -32.5t-64.5 -117.5t-23.5 -356v-328z" />
    <glyph glyph-name="s" unicode="s" horiz-adv-x="1139" 
d="M48 303l282 43q18 -82 73 -124.5t154 -42.5q109 0 164 40q37 28 37 75q0 32 -20 53q-21 20 -94 37q-340 75 -431 137q-126 86 -126 239q0 138 109 232t338 94q218 0 324 -71t146 -210l-265 -49q-17 62 -64.5 95t-135.5 33q-111 0 -159 -31q-32 -22 -32 -57q0 -30 28 -51
q38 -28 262.5 -79t313.5 -125q88 -75 88 -209q0 -146 -122 -251t-361 -105q-217 0 -343.5 88t-165.5 239z" />
    <glyph glyph-name="t" unicode="t" horiz-adv-x="682" 
d="M634 1062v-224h-192v-428q0 -130 5.5 -151.5t25 -35.5t47.5 -14q39 0 113 27l24 -218q-98 -42 -222 -42q-76 0 -137 25.5t-89.5 66t-39.5 109.5q-9 49 -9 198v463h-129v224h129v211l282 164v-375h192z" />
    <glyph glyph-name="u" unicode="u" horiz-adv-x="1251" 
d="M846 0v159q-58 -85 -152.5 -134t-199.5 -49q-107 0 -192 47t-123 132t-38 235v672h281v-488q0 -224 15.5 -274.5t56.5 -80t104 -29.5q72 0 129 39.5t78 98t21 286.5v448h281v-1062h-261z" />
    <glyph glyph-name="v" unicode="v" horiz-adv-x="1139" 
d="M439 0l-428 1062h295l200 -542l58 -181q23 69 29 91q14 45 30 90l202 542h289l-422 -1062h-253z" />
    <glyph glyph-name="w" unicode="w" horiz-adv-x="1593" 
d="M345 0l-336 1062h273l199 -696l183 696h271l177 -696l203 696h277l-341 -1062h-270l-183 683l-180 -683h-273z" />
    <glyph glyph-name="x" unicode="x" horiz-adv-x="1139" 
d="M12 0l383 547l-367 515h343l188 -292l198 292h330l-360 -503l393 -559h-345l-216 329l-218 -329h-329z" />
    <glyph glyph-name="y" unicode="y" horiz-adv-x="1139" 
d="M14 1062h299l254 -754l248 754h291l-375 -1022l-67 -185q-37 -93 -70.5 -142t-77 -79.5t-107 -47.5t-143.5 -17q-81 0 -159 17l-25 220q66 -13 119 -13q98 0 145 57.5t72 146.5z" />
    <glyph glyph-name="z" unicode="z" horiz-adv-x="1024" 
d="M34 0v219l398 457q98 112 145 159q-49 -3 -129 -4l-375 -2v233h878v-199l-406 -468l-143 -155q117 7 145 7h435v-247h-948z" />
    <glyph glyph-name="braceleft" unicode="{" horiz-adv-x="797" 
d="M60 410v240q73 4 110 22t64 60.5t37 106.5q8 48 8 167q0 194 18 270.5t65 123t137 73.5q61 18 192 18h53v-239q-111 0 -142.5 -12.5t-46.5 -38t-15 -87.5q0 -63 -9 -239q-5 -99 -26 -160.5t-53.5 -101.5t-99.5 -83q59 -34 96.5 -79.5t57.5 -110.5t26 -174q7 -166 7 -212
q0 -66 16 -92t48.5 -39.5t140.5 -13.5v-240h-53q-135 0 -207 21.5t-121.5 71.5t-66.5 123.5t-17 231.5q0 184 -16 239q-22 80 -66.5 114.5t-136.5 39.5z" />
    <glyph glyph-name="bar" unicode="|" horiz-adv-x="573" 
d="M176 -431v1922h223v-1922h-223z" />
    <glyph glyph-name="braceright" unicode="}" horiz-adv-x="797" 
d="M729 410q-73 -4 -110 -22t-63.5 -60.5t-37.5 -106.5q-8 -48 -8 -166q0 -194 -17.5 -271t-64.5 -123.5t-138 -73.5q-61 -18 -192 -18h-53v240q107 0 140 13.5t48.5 39t16 86.5t8.5 233q5 104 27 166.5t58.5 106t93.5 76.5q-74 48 -108 94q-47 66 -64 168q-11 70 -16 308
q-1 75 -13.5 100t-45 38.5t-145.5 13.5v239h53q135 0 207 -21t121 -71.5t66.5 -124t17.5 -231.5q0 -183 15 -239q22 -80 67 -114.5t137 -39.5v-240z" />
    <glyph glyph-name="asciitilde" unicode="~" horiz-adv-x="1196" 
d="M67 519v259q127 138 296 138q63 0 116 -12.5t190.5 -68t186.5 -55.5q56 0 129.5 34.5t143.5 109.5v-270q-46 -48 -128.5 -90t-170.5 -42q-50 0 -97.5 12t-150.5 57q-154 67 -242 67q-140 0 -273 -139z" />
    <glyph glyph-name="exclamdown" unicode="&#xa1;" horiz-adv-x="682" 
d="M488 1062v-281h-282v281h282zM426 678l73 -741v-344h-304v344l73 741h158z" />
    <glyph glyph-name="cent" unicode="&#xa2;" horiz-adv-x="1139" 
d="M744 811l-182 -602q22 -4 45 -4q79 0 130.5 45.5t72.5 156.5l276 -47q-43 -190 -165 -287t-326 -97q-50 0 -101 7l-117 -386l-122 34l116 385q-138 60 -212.5 196.5t-74.5 322.5q0 259 139 405t375 146q45 0 94 -6l113 376l123 -35l-112 -371q189 -72 256 -302l-277 -50
q-12 72 -51 113zM627 864q-13 1 -24 1q-106 0 -168.5 -73t-62.5 -243q0 -194 76 -280z" />
    <glyph glyph-name="sterling" unicode="&#xa3;" horiz-adv-x="1139" 
d="M999 285l108 -238q-57 -31 -131.5 -50.5t-144.5 -19.5q-90 0 -240 42.5t-222 42.5q-122 0 -249 -87l-107 242q113 81 162.5 172.5t49.5 174.5q0 27 -4 57h-208v221h157q-41 118 -41 239q0 109 59.5 208t168.5 150.5t238 51.5q197 0 314 -99.5t143 -285.5l-271 -40
q-19 107 -69 154t-125 47q-80 0 -133 -53.5t-53 -134.5q0 -42 14.5 -111t35.5 -126h312v-221h-266q3 -22 3 -44q0 -79 -30 -146t-123 -176q55 28 138 28q35 0 63 -4q14 -2 82 -19q121 -31 165 -31q78 0 204 56z" />
    <glyph glyph-name="currency" unicode="&#xa4;" horiz-adv-x="1139" 
d="M177 941l-132 131l166 178l136 -136q53 29 107.5 43t110.5 14q57 0 112 -14t107 -43l134 134l167 -169l-132 -133q28 -51 42 -105.5t14 -112.5q0 -57 -14 -111.5t-42 -106.5l134 -133l-167 -171l-136 136q-50 -28 -104.5 -42.5t-113.5 -14.5q-56 0 -110 14t-106 42
l-130 -131l-170 168l130 132q-28 52 -42.5 106.5t-14.5 111.5t13.5 110.5t40.5 102.5zM364 728q0 -84 59.5 -143t142.5 -59q84 0 143 59t59 143t-59 143t-143 59t-143 -59t-59 -143z" />
    <glyph glyph-name="yen" unicode="&#xa5;" horiz-adv-x="1139" 
d="M422 273h-371v221h371v120h-371v221h261l-311 631h308l200 -426q38 -80 54 -141q19 66 54 141l204 426h308l-315 -631h265v-221h-376v-120h376v-221h-376v-273h-281v273z" />
    <glyph glyph-name="brokenbar" unicode="&#xa6;" horiz-adv-x="573" 
d="M176 701v790h223v-790h-223zM176 -431v791h223v-791h-223z" />
    <glyph glyph-name="section" unicode="&#xa7;" horiz-adv-x="1139" 
d="M986 1154l-275 -29q-4 74 -43.5 113t-109.5 39q-65 0 -99 -28.5t-34 -64.5q0 -49 46 -94q31 -30 205 -142t230 -160q87 -73 124.5 -144.5t37.5 -158.5q0 -93 -45.5 -171.5t-136.5 -142.5q61 -56 91 -119.5t30 -134.5q0 -148 -111 -248t-319 -100q-200 0 -320 99t-142 264
l274 33q18 -90 68.5 -135.5t127.5 -45.5q66 0 105 34.5t39 83.5q0 47 -37 84q-38 37 -266.5 182.5t-297.5 241.5t-69 215q0 98 45 182t140 138q-50 54 -75.5 110t-25.5 114q0 135 105.5 228.5t296.5 93.5q196 0 308.5 -93.5t132.5 -243.5zM735 293q44 40 65.5 76.5
t21.5 70.5q0 33 -23 68t-126 110l-273 198q-34 -20 -60 -57t-26 -79q0 -101 135 -192z" />
    <glyph glyph-name="dieresis" unicode="&#xa8;" horiz-adv-x="682" 
d="M5 1250v241h241v-241h-241zM435 1250v241h242v-241h-242z" />
    <glyph glyph-name="copyright" unicode="&#xa9;" horiz-adv-x="1509" 
d="M757 1496q197 0 378 -99t284.5 -282.5t103.5 -384.5q0 -200 -101.5 -381.5t-283 -283t-381.5 -101.5t-381.5 101.5t-283 283t-101.5 381.5q0 201 103.5 384.5t284.5 282.5t378 99zM757 1345q-158 0 -303.5 -79t-228.5 -226.5t-83 -309.5q0 -160 81.5 -306t227.5 -227.5
t306 -81.5t306 81.5t227.5 227.5t81.5 306q0 161 -83 309t-228.5 227t-303.5 79zM943 616l161 -54q-38 -126 -126 -193t-210 -67q-171 0 -279 112t-108 309q0 129 48 230t138.5 151t202.5 50q123 0 205.5 -58.5t128.5 -184.5l-162 -38q-28 73 -72.5 106t-105.5 33
q-91 0 -149 -68.5t-58 -214.5t57 -215t137 -69q67 0 116 39.5t76 131.5z" />
    <glyph glyph-name="ordfeminine" unicode="&#xaa;" horiz-adv-x="758" 
d="M254 1252l-189 38q23 99 92.5 150t210.5 51q147 0 222 -39q49 -25 73 -89q15 -40 15 -154v-239q0 -104 6.5 -139.5t23.5 -69.5h-190q-13 26 -23 71q-88 -89 -216 -89q-114 0 -178 60.5t-64 155.5q0 68 31.5 115t92.5 74q45 19 188 47q79 16 125 33q0 14 -1 21
q-1 49 -18 64q-24 21 -83 21q-52 0 -78 -17q-19 -13 -40 -65zM474 1095q-22 -13 -62 -21q-108 -23 -128 -35q-40 -25 -40 -65q0 -31 27 -56t70 -25q58 0 95.5 41.5t37.5 120.5v40z" />
    <glyph glyph-name="guillemotleft" unicode="&#xab;" horiz-adv-x="1139" 
d="M633 983l-260 -451l260 -462h-221l-316 462l316 451h221zM1025 983l-259 -451l259 -462h-221l-316 462l316 451h221z" />
    <glyph glyph-name="logicalnot" unicode="&#xac;" horiz-adv-x="1196" 
d="M853 376v441h-768v257h1025v-698h-257z" />
    <glyph glyph-name="registered" unicode="&#xae;" horiz-adv-x="1509" 
d="M757 1496q197 0 378 -98.5t284.5 -282.5t103.5 -385q0 -200 -101.5 -381.5t-283 -283t-381.5 -101.5t-381.5 101.5t-283 283t-101.5 381.5q0 201 103.5 385t284.5 282.5t378 98.5zM758 1346q-158 0 -303 -79t-228.5 -227t-83.5 -310q0 -161 81.5 -307t227.5 -228t306 -82
q161 0 306.5 82t227.5 228t82 307q0 162 -83.5 310t-229 227t-303.5 79zM411 320v813h165q232 0 260 -2q82 -7 127.5 -32.5t76 -78t30.5 -116.5q0 -88 -57.5 -150.5t-161.5 -77.5q37 -14 57 -30.5t55 -62.5q9 -12 60 -99l96 -164h-204l-68 132q-69 133 -114 167.5t-114 34.5
h-43v-334h-165zM576 782h67q143 0 177.5 11t54.5 38.5t20 62.5q0 34 -19.5 60.5t-55.5 38t-177 11.5h-67v-222z" />
    <glyph glyph-name="overscore" unicode="&#xaf;" horiz-adv-x="1131" 
d="M-19 1552v183h1168v-183h-1168z" />
    <glyph glyph-name="degree" unicode="&#xb0;" horiz-adv-x="819" 
d="M86 1172q0 133 93.5 226t225.5 93t225.5 -93.5t93.5 -225.5t-93.5 -225.5t-225.5 -93.5t-225.5 93.5t-93.5 225.5zM252 1172q0 -63 45 -108t108 -45t108 45t45 108t-45 108t-108 45t-108 -45t-45 -108z" />
    <glyph glyph-name="plusminus" unicode="&#xb1;" horiz-adv-x="1124" 
d="M434 356v381h-384v263h384v381h256v-381h385v-263h-385v-381h-256zM50 0v263h1025v-263h-1025z" />
    <glyph glyph-name="twosuperior" unicode="&#xb2;" horiz-adv-x="682" 
d="M632 885v-158h-607q11 85 54.5 152t194.5 186q114 89 137 118q31 38 31 77q0 37 -25 59t-76 22t-76 -24.5t-31 -90.5l-189 16q15 117 75 171q80 71 226 71q139 0 212.5 -64t73.5 -151q0 -54 -23 -102.5t-73 -100.5q-26 -26 -135 -112q-58 -45 -83 -69h314z" />
    <glyph glyph-name="threesuperior" unicode="&#xb3;" horiz-adv-x="682" 
d="M40 946l184 20q8 -55 37 -81.5t76 -26.5q49 0 79 30t30 78q0 43 -28.5 71t-74.5 28q-30 0 -91 -15l23 146q52 -1 81.5 10.5t42 29t12.5 39.5q0 29 -21 47.5t-62 18.5t-66 -22.5t-33 -75.5l-178 26q25 103 74 147q76 68 208 68q124 0 196.5 -62t72.5 -142q0 -38 -21 -70
q-28 -45 -76 -74q67 -24 101.5 -70.5t34.5 -108.5q0 -95 -84 -168.5t-221 -73.5q-128 0 -205 63t-91 168z" />
    <glyph glyph-name="acute" unicode="&#xb4;" horiz-adv-x="682" 
d="M187 1192l138 299h315l-275 -299h-178z" />
    <glyph glyph-name="mu1" unicode="&#xb5;" horiz-adv-x="1180" 
d="M111 1062h279v-481q0 -208 42 -283q53 -97 157 -97q56 0 106 36t74 100t24 241v484h284v-1062h-262v128q-30 -56 -57 -84t-72.5 -49t-83.5 -21q-71 0 -126 39q-39 29 -86 115v-535h-279v1469z" />
    <glyph glyph-name="paragraph" unicode="&#xb6;" horiz-adv-x="1139" 
d="M635 -403h-243v1047q-190 14 -292 122t-102 286q0 105 41 192.5t110.5 138.5t163.5 71q56 12 219 12h597v-261h-113v-1608h-237v1608h-144v-1608z" />
    <glyph glyph-name="middot" unicode="&#xb7;" horiz-adv-x="682" 
d="M200 573v281h281v-281h-281z" />
    <glyph glyph-name="cedilla" unicode="&#xb8;" horiz-adv-x="682" 
d="M38 -403v118q103 -11 189 -11q89 0 132 32q33 24 33 62q0 34 -31 59t-96 25q-64 0 -131 -20l26 99q78 27 168 27q125 0 190 -55t65 -134q0 -88 -72 -143q-97 -75 -278 -75q-129 0 -195 16z" />
    <glyph glyph-name="onesuperior" unicode="&#xb9;" horiz-adv-x="682" 
d="M495 727h-190v513q-94 -65 -214 -98v155q95 27 172 87q54 42 78 100h154v-757z" />
    <glyph glyph-name="ordmasculine" unicode="&#xba;" horiz-adv-x="748" 
d="M26 1115q0 178 94.5 277t252.5 99q157 0 252 -99.5t95 -276.5t-94.5 -276t-252.5 -99t-252.5 98.5t-94.5 276.5zM237 1113q0 -110 37 -156.5t96 -46.5t96.5 46.5t37.5 156.5t-37.5 156.5t-96.5 46.5t-96 -46t-37 -157z" />
    <glyph glyph-name="guillemotright" unicode="&#xbb;" horiz-adv-x="1139" 
d="M498 70l260 452l-260 461h221l316 -461l-316 -452h-221zM106 70l260 452l-260 461h221l316 -461l-316 -452h-221z" />
    <glyph glyph-name="onequarter" unicode="&#xbc;" horiz-adv-x="1708" 
d="M496 727h-190v513q-94 -65 -214 -98v155q95 27 172 87q54 42 78 100h154v-757zM499 -54h-159l869 1538h159zM1403 -42v146h-360v141l382 470h156v-466h107v-145h-107v-146h-178zM1403 249v225l-183 -225h183z" />
    <glyph glyph-name="onehalf" unicode="&#xbd;" horiz-adv-x="1708" 
d="M496 727h-190v513q-94 -65 -214 -98v155q95 27 172 87q54 42 78 100h154v-757zM499 -54h-159l869 1538h159zM1656 115v-157h-607q11 85 55 152t194 186q114 89 137 118q31 38 31 77q0 37 -25 59t-76 22q-50 0 -75.5 -24.5t-30.5 -90.5l-190 16q15 116 76 171
q79 71 225 71q139 0 212.5 -64t73.5 -151q0 -54 -22.5 -102.5t-73.5 -100.5q-26 -26 -135 -112q-57 -45 -82 -70h313z" />
    <glyph glyph-name="threequarters" unicode="&#xbe;" horiz-adv-x="1708" 
d="M40 946l184 20q8 -55 37 -81.5t76 -26.5q49 0 79 30t30 78q0 43 -28.5 71t-74.5 28q-30 0 -91 -15l23 146q52 -1 81.5 10.5t42 29t12.5 39.5q0 29 -21 47.5t-62 18.5t-66 -22.5t-33 -75.5l-178 26q25 103 74 147q76 68 208 68q124 0 196.5 -62t72.5 -142q0 -38 -21 -70
q-28 -45 -76 -74q67 -24 101.5 -70.5t34.5 -108.5q0 -95 -84 -168.5t-221 -73.5q-128 0 -205 63t-91 168zM523 -54h-159l869 1538h158zM1402 -42v146h-360v141l382 470h156v-466h108v-145h-108v-146h-178zM1402 249v225l-182 -225h182z" />
    <glyph glyph-name="questiondown" unicode="&#xbf;" horiz-adv-x="1251" 
d="M763 1062v-281h-281v281h281zM509 684h254q2 -66 2 -76q0 -114 -43.5 -196.5t-170 -185.5t-151.5 -144t-25 -93q0 -77 66 -135.5t177 -58.5q107 0 178 59.5t100 187.5l258 -33q-17 -125 -71 -208q-74 -113 -192.5 -167t-261.5 -54q-241 0 -384.5 126.5t-143.5 292.5
q0 64 25.5 124.5t80 121.5t173.5 159q87 70 108.5 116.5t20.5 163.5z" />
    <glyph glyph-name="Agrave" unicode="&#xc0;" horiz-adv-x="1479" 
d="M1471 0h-322l-128 333h-586l-121 -333h-314l571 1466h313zM926 580l-202 544l-198 -544h400zM891 1550h-177l-276 299h315z" />
    <glyph glyph-name="Aacute" unicode="&#xc1;" horiz-adv-x="1479" 
d="M1471 0h-322l-128 333h-586l-121 -333h-314l571 1466h313zM926 580l-202 544l-198 -544h400zM554 1550l138 299h315l-275 -299h-178z" />
    <glyph glyph-name="Acircumflex" unicode="&#xc2;" horiz-adv-x="1479" 
d="M1471 0h-322l-128 333h-586l-121 -333h-314l571 1466h313zM926 580l-202 544l-198 -544h400zM386 1550l210 295h260l207 -295h-226l-116 149l-108 -149h-227z" />
    <glyph glyph-name="Atilde" unicode="&#xc3;" horiz-adv-x="1479" 
d="M1471 0h-322l-128 333h-586l-121 -333h-314l571 1466h313zM926 580l-202 544l-198 -544h400zM495 1547h-128q-1 23 -1 36q0 105 51 161.5t131 56.5q35 0 65 -7.5t109.5 -43t124.5 -35.5q32 0 53.5 20t27.5 67h130q-1 -135 -50.5 -193t-127.5 -58q-34 0 -67 7
q-23 6 -115 41t-134 35q-32 0 -50 -19.5t-19 -67.5z" />
    <glyph glyph-name="Adieresis" unicode="&#xc4;" horiz-adv-x="1479" 
d="M1471 0h-322l-128 333h-586l-121 -333h-314l571 1466h313zM926 580l-202 544l-198 -544h400zM383 1550v241h241v-241h-241zM813 1550v241h242v-241h-242z" />
    <glyph glyph-name="Aring" unicode="&#xc5;" horiz-adv-x="1479" 
d="M1471 0h-322l-128 333h-586l-121 -333h-314l571 1466h313zM926 580l-202 544l-198 -544h400zM921 1562q0 -81 -57.5 -138.5t-138.5 -57.5t-138.5 57.5t-57.5 138.5t57.5 138.5t138.5 57.5t138.5 -57t57.5 -139zM814 1562q0 37 -26 63t-63 26t-63 -26t-26 -63t26 -63
t63 -26t63 26t26 63z" />
    <glyph glyph-name="AE" unicode="&#xc6;" horiz-adv-x="2048" 
d="M-86 0l684 1466h1324v-248h-726v-326h669v-248h-669v-397h753v-247h-1049v345h-508l-150 -345h-328zM501 601h402v643h-115z" />
    <glyph glyph-name="Ccedilla" unicode="&#xc7;" horiz-adv-x="1479" 
d="M1087 539l287 -91q-66 -240 -219.5 -356.5t-389.5 -116.5q-292 0 -480 199.5t-188 545.5q0 366 189 568.5t497 202.5q269 0 437 -159q100 -94 150 -270l-293 -70q-26 114 -108.5 180t-200.5 66q-163 0 -264.5 -117t-101.5 -379q0 -278 100 -396t260 -118q118 0 203 75
t122 236zM465 -403v118q103 -11 189 -11q89 0 132 32q33 24 33 62q0 34 -31 59t-96 25q-64 0 -131 -20l26 99q78 27 168 27q125 0 190 -55t65 -134q0 -88 -72 -143q-97 -75 -278 -75q-129 0 -195 16z" />
    <glyph glyph-name="Egrave" unicode="&#xc8;" horiz-adv-x="1366" 
d="M149 0v1466h1087v-248h-791v-325h736v-247h-736v-399h819v-247h-1115zM862 1550h-177l-276 299h315z" />
    <glyph glyph-name="Eacute" unicode="&#xc9;" horiz-adv-x="1366" 
d="M149 0v1466h1087v-248h-791v-325h736v-247h-736v-399h819v-247h-1115zM525 1550l138 299h315l-275 -299h-178z" />
    <glyph glyph-name="Ecircumflex" unicode="&#xca;" horiz-adv-x="1366" 
d="M149 0v1466h1087v-248h-791v-325h736v-247h-736v-399h819v-247h-1115zM337 1550l210 295h260l207 -295h-226l-116 149l-108 -149h-227z" />
    <glyph glyph-name="Edieresis" unicode="&#xcb;" horiz-adv-x="1366" 
d="M149 0v1466h1087v-248h-791v-325h736v-247h-736v-399h819v-247h-1115zM354 1550v241h241v-241h-241zM784 1550v241h242v-241h-242z" />
    <glyph glyph-name="Igrave" unicode="&#xcc;" horiz-adv-x="569" 
d="M140 0v1466h296v-1466h-296zM443 1550h-177l-276 299h315z" />
    <glyph glyph-name="Iacute" unicode="&#xcd;" horiz-adv-x="569" 
d="M140 0v1466h296v-1466h-296zM106 1550l138 299h315l-275 -299h-178z" />
    <glyph glyph-name="Icircumflex" unicode="&#xce;" horiz-adv-x="569" 
d="M140 0v1466h296v-1466h-296zM-42 1550l210 295h260l207 -295h-226l-116 149l-108 -149h-227z" />
    <glyph glyph-name="Idieresis" unicode="&#xcf;" horiz-adv-x="569" 
d="M140 0v1466h296v-1466h-296zM-45 1550v241h241v-241h-241zM385 1550v241h242v-241h-242z" />
    <glyph glyph-name="Eth" unicode="&#xd0;" horiz-adv-x="1479" 
d="M149 1466h540q186 0 282 -29q130 -39 222 -137.5t138.5 -238.5t46.5 -346q0 -181 -51.5 -326.5t-151.5 -242.5q-77 -73 -207 -115q-98 -31 -263 -31h-556v640h-152v186h152v640zM444 1218v-392h314v-186h-314v-393h222q147 0 212 24q86 30 131 110q63 113 63 345
q0 165 -26.5 254.5t-78 144.5t-134.5 77q-64 16 -255 16h-134z" />
    <glyph glyph-name="Ntilde" unicode="&#xd1;" horiz-adv-x="1479" 
d="M152 0v1466h288l600 -979v979h275v-1466h-297l-591 956v-956h-275zM520 1547h-128q-1 23 -1 36q0 105 51 161.5t131 56.5q35 0 65 -7.5t109.5 -43t124.5 -35.5q32 0 53.5 20t27.5 67h130q-1 -135 -50.5 -193t-127.5 -58q-34 0 -67 7q-23 6 -115 41t-134 35
q-32 0 -50 -19.5t-19 -67.5z" />
    </font>
</defs>
</svg>
